Welcome Guest ( Log In | Register )

> Правила / Rules

Тут только для чтения лежат низкобитрейтные (<192kbps) релизы, для которых есть аналоги в высокобитрейтных форумах.

Here goes (and stand in read only mode) low bitrate releases (<192kbps) which were already replaced by high bitrate releases in corresponding forums.

Причина закрытия (Абигор 05-11-2019): Venomwolf - Stormriding Power (2018)
 
Closed TopicStart new topic
> Venomwolf - Stormriding Power (2018), Black/Speed Metal/Punk
post Oct 3 2019, 14:28:42
Post #1

Пять Литров
*****
Group: Металариец
Posts: 452
Releases: 21
From: Подольск
On Forums: 10 years 6 months
Thanks: 601 time(s)
Russian Federation


(IMG:http://metalarea.org/images/audiocovers/2019_Oct/acov_tid328316_thumb.jpg)

*Artist: Venomwolf
*Album: Stormriding Power
*Year: 2018
*Genre: Black/Speed Metal/Punk
*Country: United Kingdom (IMG:http://metalarea.org/forum/style_images/flags/United%20Kingdom.png)
*Format: mp3@VBR128kbps (IMG:http://metalarea.org/images/bit_low.gif)
*Size: 35MB

Tracklist:
1. The Summoning 01:33
2. Stormriding Power 03:26
3. Tyrant's Curse 02:14
4. Black Wine 04:13
5. Graveyard Violence 02:53
6. Dogs of Darkness 02:57
7. Impaler 02:41
8. Addicted Sadistic 02:48
9. One with the Fire 02:34
10. Blood Ritual 03:16
11. Bone Reaper 03:41
******************************
Total playing time: 32:16



Extended info
Recorded and mixed at the Venomwolf rehearsal crypt, 2017


Technical info
(IMG:http://metalarea.org/images/spectrogram/2019_Oct/59ac15883b172790ad85ec21523841f2.png)
Input File: Venomwolf - 1 The Summoning.mp3
Channels : 2
Sample Rate : 44100
Precision : 16-bit
Duration : 00:01:33.55 = 4125687 samples = 7016.47 CDDA sectors
File Size : 1.50M
Bit Rate : 128k
Sample Encoding: MPEG audio (layer I, II or III)



Register


Go to the top of the page
  Insert nick Quick quote
+Quote Post

Причина закрытия (Абигор 05-11-2019): Venomwolf - Stormriding Power (2018)
Closed TopicStart new topic
2 User(s) are reading this topic (2 Guests and 0 Anonymous Users)
0 Members:

 



- Lo-Fi Version Support form
Copyrights and abuse reports form
Time is now: 6th December 2019 - 23:48:08