Welcome Guest ( Log In | Register )

> K.F.R - Par Le Sang (2018), Black Metal/Noise
post Oct 3 2019, 15:50:46
Post #1

Четыре Литра
****
Group: Металариец
Posts: 399
Releases: 79
On Forums: 6 years 7 months
Thanks: 1532 time(s)
Serbia


(IMG:https://metalarea.org/images/audiocovers/2019_Oct/acov_tid328326_thumb.jpg)

*Artist: K.F.R
*Album: Par Le Sang
*Year: 2018
*Genre: Black Metal/Noise
*Country: France (IMG:https://metalarea.org/forum/style_images/flags/France.png)
*Format: mp3@CBR320kbps
*Size: 111MB

Tracklist:
1. My Curse upon Men 05:20
2. Rosary of Flesh and Pain 06:38
3. We're Born Dead 07:19
4. La pourriture des limbes 05:44
5. Larv II 07:54
6. Swallow the Light 13:08
******************************
Total playing time: 46:03

Technical info
(IMG:https://metalarea.org/images/spectrogram/2019_Oct/2eb09e076647d5f15aaeee9513fc4fb4.png)
Input File: K.F.R (كافر) - Par Le Sang - 03 We\'re Born Dead.mp3
Channels : 2
Sample Rate : 44100
Precision : 16-bit
Duration : 00:07:19.88 = 19398576 samples = 32990.8 CDDA sectors
File Size : 17.6M
Bit Rate : 320k
Sample Encoding: MPEG audio (layer I, II or III)
Comments :
Title=We're Born Dead
Artist=K.F.R.
Album=Par le Sang
Tracknumber=3
Year=2018
Genre=Black Metal/Noise



Register


Go to the top of the page
  Insert nick Quick quote
+Quote Post
 
Start new topic
Replies (1 - 3)
post Oct 4 2019, 07:56:40
Post #2

Правь статус, ####!111
**************
Group: Металариец
Posts: 46,493
Releases: 718
On Forums: 11 years 5 days
Thanks: 39038 time(s)
Russian Federation


Это очень своеобычный и при этом отличный болезненный бм от известного художника Максима Таккарди.

Вся диско очень ровная по качеству, рекомендую.


Thanks:
Go to the top of the page
  Insert nick Quick quote
+Quote Post
post Oct 4 2019, 08:21:11
Post #3

De Mysteriis Dom Sathanas
**************
Group: Металариец
Posts: 3,960
Releases: 63
From: Doom
On Forums: 11 years 10 months
Thanks: 3356 time(s)
Russian Federation


Очередной многостаночник со специфической музыкой - такой блэк не мое
Go to the top of the page
  Insert nick Quick quote
+Quote Post
post Oct 8 2019, 18:30:20
Post #4

Правь статус, ####!111
**************
Group: Металариец
Posts: 46,493
Releases: 718
On Forums: 11 years 5 days
Thanks: 39038 time(s)
Russian Federation


О даже как

ЦИТАТА
Drums recorded with human bones


(IMG:style_emoticons/default/25.gif)
Go to the top of the page
  Insert nick Quick quote
+Quote Post

Reply to this topicStart new topic
1 User(s) are reading this topic (1 Guests and 0 Anonymous Users)
0 Members:

 



- Lo-Fi Version Support form
Copyrights and abuse reports form
Time is now: 7th June 2020 - 02:37:01