Welcome Guest ( Log In | Register )

> Releases Upload / Добавление релизов

Добавить релиз тут / Click here to add release
Рекомендованные обменники / Recommended file shares

 
Reply to this topicStart new topic
> Sárcwide - Demo [demo] (2019), Black Metal
post Oct 3 2019, 21:04:02
Post #1

𝕻𝕬𝕹𝕬𝕮𝕰𝕬
*******
Group: Металариец
Posts: 709
Releases: 401
On Forums: 7 years 5 months
Thanks: 6106 time(s)
Unknown


(IMG:http://metalarea.org/images/audiocovers/2019_Oct/acov_tid328336_thumb.jpg)

*Artist: Sárcwide
*Album: Demo [demo]
*Year: 2019
*Genre: Black Metal
*Country: United Kingdom (IMG:http://metalarea.org/forum/style_images/flags/United%20Kingdom.png)
*Format: mp3@CBR320kbps
*Size: 27MB

Tracklist:
1. To Wish To Forget 03:39
2. Welkin 02:05
3. Mist Burial 03:24
******************************
Total playing time: 9:08



Technical info
(IMG:http://metalarea.org/images/spectrogram/2019_Oct/965fe3180f262f9cbed17f51b848241c.png)
Input File: 02 - Welkin.mp3
Channels : 2
Sample Rate : 44100
Precision : 16-bit
Duration : 00:02:05.89 = 5551925 samples = 9442.05 CDDA sectors
File Size : 5.18M
Bit Rate : 329k
Sample Encoding: MPEG audio (layer I, II or III)
Comments :
Title=Welkin
Artist=Sárcwide
Album=Demo
Tracknumber=2
Year=2019
Genre=Black Metal



Register


Go to the top of the page
  Insert nick Quick quote
+Quote Post

Reply to this topicStart new topic
2 User(s) are reading this topic (2 Guests and 0 Anonymous Users)
0 Members:

 



- Lo-Fi Version Support form
Copyrights and abuse reports form
Time is now: 12th November 2019 - 22:19:28