Welcome Guest ( Log In | Register )

 
Reply to this topicStart new topic
> Evil Invaders - Surge Of Insanity: Live In Antwerp 2018 [live] (2019), Speed Metal
post Oct 4 2019, 14:41:31
Post #1

Правь статус, ####!111
**************
Group: Металариец
Posts: 2,774
Releases: 2474
From: Одесса
On Forums: 11 years 11 months
Thanks: 23474 time(s)
Ukraine


(IMG:http://metalarea.org/images/audiocovers/2019_Oct/acov_tid328355_thumb.jpg)

*Artist: Evil Invaders
*Album: Surge Of Insanity: Live In Antwerp 2018 [live]
*Year: 2019
*Genre: Speed Metal
*Country: Belgium (IMG:http://metalarea.org/forum/style_images/flags/Belgium.png)
*Format: mp3@CBR320kbps
*Size: 189MB

Tracklist:
1.Intro
2.As Life Slowly Fades
3.Pulses of Pleasure
4.Shot to Paradise
5.Mental Penitentiary
6.Broken Dreams in Isolation
7.Feed Me Violence
8.Stairway to Insanity
9.Among the Depths of Sanity
10.Oblivion
11.Master of Illusion
12.Witching Hour
13.Fast, Loud 'N' Rude
14.Raising Hell
15.Victim of Sacrifice
16.Outro: Shades of Solitude
******************************
Total playing time: 1:19:47



Extended info
Line - up:

Joe - Vocals (lead), Guitars
Senne Jacobs - Drums
Max - Guitars (lead) (Constant Vulse, ex-Death Assault, ex-Voltrage)
Joeri - Bass (ex-Prematory, Brides of Lucifer, ex-Carnation (live))

(IMG:https://f4.bcbits.com/img/0010911556_10.jpg)


Technical info
(IMG:http://metalarea.org/images/spectrogram/2019_Oct/81c3d73c4c909c6b19cbefbfdcdf24d5.png)
Input File: 04 Shot to Paradise.mp3
Channels : 2
Sample Rate : 44100
Precision : 16-bit
Duration : 00:04:11.32 = 11082992 samples = 18848.6 CDDA sectors
File Size : 10.1M
Bit Rate : 320k
Sample Encoding: MPEG audio (layer I, II or III)
Comments :
Title=Shot to Paradise
Artist=Evil Invaders
Album=Surge of Insanity: Live in Antwerp 2018 (Live)
Tracknumber=4
Year=2019
Genre=Speed Metal



Register


Go to the top of the page
  Insert nick Quick quote
+Quote Post

Reply to this topicStart new topic
1 User(s) are reading this topic (1 Guests and 0 Anonymous Users)
0 Members:

 



- Lo-Fi Version Support form
Copyrights and abuse reports form
Time is now: 25th May 2020 - 20:29:53