Welcome Guest ( Log In | Register )

> Releases Upload / Добавление релизов

Добавить релиз тут / Click here to add release
Рекомендованные обменники / Recommended file shares

> Imber Luminis - Same Old Silences (2019), Atmospheric Doom Metal (D)
post Oct 5 2019, 20:33:23
Post #1

Маньяк
**********
Group: Металариец
Posts: 1,005
Releases: 842
From: Новороссийск
On Forums: 8 years 5 months
Thanks: 14983 time(s)
Russian Federation


(IMG:https://metalarea.org/images/audiocovers/2019_Oct/acov_tid328405_thumb.jpg)

*Artist: Imber Luminis
*Album: Same Old Silences
*Year: 2019
*Genre: Atmospheric Doom Metal
*Country: Belgium (IMG:https://metalarea.org/forum/style_images/flags/Belgium.png)
*Format: mp3@CBR320kbps
*Size: 97MB

Tracklist:
01. Same Old Sufferings I II III 24:36
02. Silence III 17:44
******************************
Total playing time: 42:21



Technical info
(IMG:https://metalarea.org/images/spectrogram/2019_Oct/d140b1fa0581bb902b653025d0831d01.png)
Input File: 01 Same Old Sufferings I II III.mp3
Channels : 2
Sample Rate : 44100
Precision : 16-bit
Duration : 00:24:36.63 = 65119383 samples = 110747 CDDA sectors
File Size : 59.1M
Bit Rate : 320k
Sample Encoding: MPEG audio (layer I, II or III)
Comments :
Title=Same Old Sufferings I II III
Artist=Imber Luminis
Album=Same Old Silences
Tracknumber=01
Year=2019
Genre=Doom Metal



Register


Go to the top of the page
  Insert nick Quick quote
+Quote Post
 
Start new topic
Replies (1 - 4)
post Oct 9 2019, 14:46:30
Post #2

Dark Ambient Shoujo
**********
Group: Металариец
Posts: 1,184
Releases: 1
On Forums: 10 years 9 months
Thanks: 601 time(s)
Russian Federation


И ни одного коммента... В соседних темах про пионерский блэк - десятки, а тут тишина. А тем временем деятель очень талантлив! Предыдущая работа (Contrasts) была просто великолепна! Тут, как по мне, слишком много депрессива, а может, просто под настроение не зашло.
Go to the top of the page
  Insert nick Quick quote
+Quote Post
post Oct 10 2019, 12:48:57
Post #3

Правь статус, ####!111
**************
Group: Металариец
Posts: 2,681
Releases: 8
From: Dnipro
On Forums: 11 years 3 months
Thanks: 834 time(s)
Ukraine


ЦИТАТА(Dreamtale @ Oct 9 2019, 16:46:30) *
Тут, как по мне, слишком много депрессива, а может, просто под настроение не зашло.

Депрессива не много, дума много.
Go to the top of the page
  Insert nick Quick quote
+Quote Post
post Oct 10 2019, 13:19:43
Post #4

Dark Ambient Shoujo
**********
Group: Металариец
Posts: 1,184
Releases: 1
On Forums: 10 years 9 months
Thanks: 601 time(s)
Russian Federation


ЦИТАТА(isvili @ 10th October 2019 - 14:48:57) *
Депрессива не много, дума много.

ЦИТАТА
Стиль: Atmospheric Doom Metal

Ну я даже не знаю...
Go to the top of the page
  Insert nick Quick quote
+Quote Post
post Oct 14 2019, 15:47:28
Post #5

I hate you all
**************
Group: Металариец
Posts: 2,080
Releases: 75
From: Ukraine
On Forums: 12 years 5 months
Thanks: 5225 time(s)
Ukraine


Группа позиционирует себя как атмосферик БЛЕК метал , какого хрена тут отсебятину писать в стиле команды ???
Go to the top of the page
  Insert nick Quick quote
+Quote Post

Reply to this topicStart new topic
2 User(s) are reading this topic (2 Guests and 0 Anonymous Users)
0 Members:

 



- Lo-Fi Version Support form
Copyrights and abuse reports form
Time is now: 22nd October 2019 - 07:00:36