Welcome Guest ( Log In | Register )

> И неформату есть предел.

Рэп/хип-хоп/шансон/поп удаляются. Для них есть свои порталы.

> Scum - Snuff Hd (2015), Hip Hop/Horrorcore (D)
post Oct 6 2019, 08:14:58
Post #1


**************
Group: Металариец
Posts: 2,089
Releases: 14
From: Казань
On Forums: 10 years 1 month
Thanks: 2746 time(s)
Russian Federation


(IMG:http://metalarea.org/images/audiocovers/2019_Oct/acov_tid328417_thumb.jpg)

*Artist: Scum
*Album: Snuff Hd
*Year: 2015
*Genre: Hip Hop/Horrorcore
*Country: United States (IMG:http://metalarea.org/forum/style_images/flags/United%20States.png)
*Format: mp3@CBR320kbps
*Size: 223MB

Tracklist:
1. Snuff HD 3:18
2. Not Alike 3:05
3. The Last Gorehican 4:01
4. Just a Victim 2:56
5. Pigs Ft Insane Poetry 4:04
6. Lost Childhood 2:54
7. Devil (feat. Q Strange & Esham) 4:20
8. Bloodthirst 3:13
9. Scream Ft Geno Cultshit 4:05
10. Drowning 3:51
11. For the Fuck Of It Ft Smallz One 4:18
12. I Don’t Wanna Hurt You 3:18
13. Basement Hell Ft Damien Quinn 3:55
14. Disgusting 3:16
15. Fucked Up Sense of Humor Ft Liquid Assassin 4:59
16. No More Mr. Nice Guy 2:19
17. Knife to Your Throat Ft Boondox 4:02
18. Neva Caught 3:15
19. Final Thoughts Ft Playboy the Beast 3:38
20. Once Upon A Time 3:23
21. Fuck Your Corpse Ft Dread Skinny 4:18
22. Snuff-U-Mentary 2:33
******************************
Total playing time: 1:19:01

Extended info


Technical info
(IMG:http://metalarea.org/images/spectrogram/2019_Oct/1659e0356c9916ea0235bd4ad5294943.png)
Input File: 01 - Snuff Hd.mp3
Channels : 2
Sample Rate : 44100
Precision : 16-bit
Duration : 00:03:18.57 = 8756937 samples = 14892.8 CDDA sectors
File Size : 9.85M
Bit Rate : 397k
Sample Encoding: MPEG audio (layer I, II or III)
Comments :
Title=Snuff Hd
Artist=Scum
Album=Snuff HD
Tracknumber=1
Year=2015
Genre=Hip Hop
Discnumber=1/1



Register


Thanks:
Go to the top of the page
  Insert nick Quick quote
+Quote Post
 
Start new topic
Replies (1 - 1)
post Oct 6 2019, 10:49:27
Post #2

за бибу.ЗА БОБУ.
**************
Group: Металариец
Posts: 3,055
Releases: 0
On Forums: 3 years 8 months
Thanks: 1866 time(s)
Unknown


не, нормально блин, а Butchers Harem не пропустили.
учитывая, что это весь сегодняшний хорроркор одним мизинцем уделывают.
Go to the top of the page
  Insert nick Quick quote
+Quote Post

Reply to this topicStart new topic
1 User(s) are reading this topic (1 Guests and 0 Anonymous Users)
0 Members:

 



- Lo-Fi Version Support form
Copyrights and abuse reports form
Time is now: 21st October 2019 - 01:24:47