Welcome Guest ( Log In | Register )

 
Reply to this topicStart new topic
> Mindfak - Treter Ep [ep] (2016), Groove Metal
post Oct 6 2019, 09:53:40
Post #1

Девять Литров
*********
Group: Металариец
Posts: 994
Releases: 364
From: Саранск
On Forums: 8 years 7 months
Thanks: 2933 time(s)
Russian Federation


(IMG:https://metalarea.org/images/audiocovers/2019_Oct/acov_tid328422_thumb.jpg)

*Artist: Mindfak
*Album: Treter Ep [ep]
*Year: 2016
*Genre: Groove Metal
*Country: Poland (IMG:https://metalarea.org/forum/style_images/flags/Poland.png)
*Format: mp3@CBR320kbps
*Size: 48MB

Tracklist:
1. Jestesœmy Wkurwieni
2. Zabijka
3. Lobo
4. Skoczniak
5. Prehistoryczne Psy
******************************
Total playing time: 21:17

(IMG:https://metalarea.org/images/youtube.png)

Technical info
(IMG:https://metalarea.org/images/spectrogram/2019_Oct/97804f3c6a2545a2ef17437191998b23.png)
Input File: 1 - Jesteśmy Wkurwieni.mp3
Channels : 2
Sample Rate : 44100
Precision : 16-bit
Duration : 00:03:02.68 = 8056364 samples = 13701.3 CDDA sectors
File Size : 7.31M
Bit Rate : 320k
Sample Encoding: MPEG audio (layer I, II or III)
Comments :
Title=Jesteśmy Wkurwieni
Artist=Mindfak
Album=Treter EP
Tracknumber=1
Year=2016
Genre=Groove



Register


Go to the top of the page
  Insert nick Quick quote
+Quote Post

Reply to this topicStart new topic
2 User(s) are reading this topic (2 Guests and 0 Anonymous Users)
0 Members:

 



- Lo-Fi Version Support form
Copyrights and abuse reports form
Time is now: 13th December 2019 - 16:36:36