Welcome Guest ( Log In | Register )

> K.F.R - Look At What You Have Done Of Me [ep] (2014), Black Metal/Dark Ambient (D)
post Oct 6 2019, 13:36:13
Post #1

Четыре Литра
****
Group: Металариец
Posts: 399
Releases: 79
On Forums: 6 years 7 months
Thanks: 1532 time(s)
Serbia


(IMG:https://metalarea.org/images/audiocovers/2019_Oct/acov_tid328429_thumb.jpg)

*Artist: K.F.R
*Album: Look At What You Have Done Of Me [ep]
*Year: 2014
*Genre: Black Metal/Dark Ambient
*Country: France (IMG:https://metalarea.org/forum/style_images/flags/France.png)
*Format: mp3@CBR320kbps
*Size: 62MB

Tracklist:
1. Ill (Funeral March) 05:27
2. The Scars Are Getting Worse 05:20
3. A Plague in My Heart 05:10
4. There Is a Hole in My Dreams 04:17
5. Ton misérable monde 05:42
******************************
Total playing time: 25:56

Technical info
(IMG:https://metalarea.org/images/spectrogram/2019_Oct/890fe3fede110afbb93db73f68b69e0e.png)
Input File: 03 - A plague in my heart.mp3
Channels : 2
Sample Rate : 44100
Precision : 16-bit
Duration : 00:05:10.22 = 13680878 samples = 23266.8 CDDA sectors
File Size : 12.5M
Bit Rate : 321k
Sample Encoding: MPEG audio (layer I, II or III)
Comments :
Title=A plague in my heart
Artist=K.F.R (كافر)
Album=Look at what You Have Done of Me (part of the split with OBT)
Tracknumber=3
Year=2014



Register


Go to the top of the page
  Insert nick Quick quote
+Quote Post
 
Start new topic
Replies (1 - 1)
post Oct 7 2019, 08:55:34
Post #2

Правь статус, ####!111
**************
Group: Металариец
Posts: 46,493
Releases: 718
On Forums: 11 years 5 days
Thanks: 39037 time(s)
Russian Federation


Black Metal in its initial form.

Taccardi plays it the way it should be played.

Art for the few but those are really devoted.


Thanks:
Go to the top of the page
  Insert nick Quick quote
+Quote Post

Reply to this topicStart new topic
1 User(s) are reading this topic (1 Guests and 0 Anonymous Users)
0 Members:

 



- Lo-Fi Version Support form
Copyrights and abuse reports form
Time is now: 6th June 2020 - 18:51:13