Welcome Guest ( Log In | Register )

> Releases Upload / Добавление релизов

Добавить релиз тут / Click here to add release
Рекомендованные обменники / Recommended file shares

> Cell - Ancient Incantations Of Xarbos (2019), Black Metal
post Oct 6 2019, 20:40:33
Post #1

Правь статус, ####!111
**************
Group: Металариец
Posts: 19,102
Releases: 12898
From: Г.Харьков
On Forums: 7 years 5 months
Thanks: 221318 time(s)
Unknown


(IMG:http://metalarea.org/images/audiocovers/2019_Oct/acov_tid328441_thumb.jpg)

*Artist: Cell
*Album: Ancient Incantations Of Xarbos
*Year: 2019
*Genre: Black Metal
*Country: Canada (IMG:http://metalarea.org/forum/style_images/flags/Canada.png)
*Format: mp3@CBR320kbps
*Size: 107MB

Tracklist:
1. The Rise of Gorthar 02:30 instrumental
2. Defiling the Ancient Hierarchy 07:16
3. Alll I See Is Them 04:14
4. The Wailing Sea of Emptiness 05:59
5. Ancient Incantations of Xarbos 01:35 instrumental
6. God of the NetherRealm 08:32
7. The Valley of Assimilation 05:24
8. Altering Matter in the Realm of the Frost King 10:38
******************************
Total playing time: 46:08




Extended info
Deimos Bass, Vocals (backing) (2014-present)
See also: Entity, ex-Endless Chaos, ex-Armoured Assault, ex-Hoarfrost
Hyperion Guitars, Vocals (2014-present)
See also: Entity, ex-Occisor, ex-Inverted Serenity, ex-Vathek, ex-Kuldakaust
Hypnos Drums (2018-present)
See also: Vathek, ex-Commencing Human Desperation, ex-Realm of Anubis


Technical info
(IMG:http://metalarea.org/images/spectrogram/2019_Oct/9135c7a543d464374ee0e46bcd444e11.png)
Input File: 04 - The Wailing Sea of Emptiness.mp3
Channels : 2
Sample Rate : 44100
Precision : 16-bit
Duration : 00:05:59.60 = 15858140 samples = 26969.6 CDDA sectors
File Size : 14.6M
Bit Rate : 325k
Sample Encoding: MPEG audio (layer I, II or III)
Comments :
Title=The Wailing Sea of Emptiness
Artist=Cell
Album=Ancient Incantations of Xarbos
Tracknumber=4
Year=2019



Register


Go to the top of the page
  Insert nick Quick quote
+Quote Post
 
Start new topic
Replies (1 - 1)
post Oct 7 2019, 01:40:39
Post #2

Правь статус, ####!111
**************
Group: Металариец
Posts: 19,102
Releases: 12898
From: Г.Харьков
On Forums: 7 years 5 months
Thanks: 221318 time(s)
Unknown


Cloud Mail 320
Register


Go to the top of the page
  Insert nick Quick quote
+Quote Post

Reply to this topicStart new topic
1 User(s) are reading this topic (1 Guests and 0 Anonymous Users)
0 Members:

 



- Lo-Fi Version Support form
Copyrights and abuse reports form
Time is now: 22nd October 2019 - 07:46:20