Welcome Guest ( Log In | Register )

> Releases Upload / Добавление релизов

Добавить релиз тут / Click here to add release
Рекомендованные обменники / Recommended file shares

> Jumpscare - Don't Close Your Eyes (2019), Melodic Death Metal
post Oct 6 2019, 21:17:55
Post #1

Правь статус, ####!111
**************
Group: Металариец
Posts: 19,102
Releases: 12898
From: Г.Харьков
On Forums: 7 years 5 months
Thanks: 221323 time(s)
Unknown


(IMG:http://metalarea.org/images/audiocovers/2019_Oct/acov_tid328443_thumb.jpg)

*Artist: Jumpscare
*Album: Don't Close Your Eyes
*Year: 2019
*Genre: Melodic Death Metal
*Country: Italy (IMG:http://metalarea.org/forum/style_images/flags/Italy.png)
*Format: mp3@CBR320kbps
*Size: 78MB

Tracklist:
1. Dead Bodies 04:11
2. Don't Close Your Eyes 04:08
3. Earth Decay 04:27
4. Falling Tears 04:52
5. Mate Feed Kill Repeat 03:40
6. Paralyzed 03:43
7. Seventh Circle 04:22
8. Sickness 03:50
******************************
Total playing time: 33:13




Extended info
GooglePlay Rip
Ciro "Kirion" Silvano- Vocals
Vincenzo "Vic" Mussolino - Guitars
Andrea Di Martino - Guitars
Salvatore Ciccarelli - Bass
Graziano Ciccarelli - Drums


Technical info
(IMG:http://metalarea.org/images/spectrogram/2019_Oct/28987af483cd13c1d4e9b80490232613.png)
Input File: 04 - Falling Tears.mp3
Channels : 2
Sample Rate : 44100
Precision : 16-bit
Duration : 00:04:52.51 = 12899647 samples = 21938.2 CDDA sectors
File Size : 11.8M
Bit Rate : 324k
Sample Encoding: MPEG audio (layer I, II or III)
Comments :
Title=Falling Tears
Artist=Jumpscare
Album=Don't Close Your Eyes
Tracknumber=4
Year=2019-10-06
Genre=Metal
Discnumber=1



Register


Go to the top of the page
  Insert nick Quick quote
+Quote Post
 
Start new topic
Replies (1 - 2)
post Oct 7 2019, 20:48:04
Post #2

MDM-Thrash Metal
**************
Group: Металариец
Posts: 8,902
Releases: 684
From: Одесса
On Forums: 12 years 2 months
Thanks: 18899 time(s)
Ukraine


Неплохой мелодет, без всякого рода новомодностей, исполнено весьма прилично! (IMG:style_emoticons/default/20.gif)


Go to the top of the page
  Insert nick Quick quote
+Quote Post
post Oct 10 2019, 13:11:47
Post #3

Правь статус, ####!111
**************
Group: Металариец
Posts: 2,681
Releases: 8
From: Dnipro
On Forums: 11 years 3 months
Thanks: 834 time(s)
Ukraine


Модернявость все таки немного присутствует.
Go to the top of the page
  Insert nick Quick quote
+Quote Post

Reply to this topicStart new topic
1 User(s) are reading this topic (1 Guests and 0 Anonymous Users)
0 Members:

 



- Lo-Fi Version Support form
Copyrights and abuse reports form
Time is now: 22nd October 2019 - 07:57:08