Welcome Guest ( Log In | Register )

> Releases Upload / Добавление релизов

Добавить релиз тут / Click here to add release
Рекомендованные обменники / Recommended file shares

 
Reply to this topicStart new topic
> Raven Legacy - Sol Invictus [ep] (2019), Symphonic Black Metal
post Oct 6 2019, 22:34:45
Post #1

Правь статус, ####!111
**************
Group: Металариец
Posts: 19,102
Releases: 12898
From: Г.Харьков
On Forums: 7 years 5 months
Thanks: 221303 time(s)
Unknown


(IMG:http://metalarea.org/images/audiocovers/2019_Oct/acov_tid328444_thumb.jpg)

*Artist: Raven Legacy
*Album: Sol Invictus [ep]
*Year: 2019
*Genre: Symphonic Black Metal
*Country: Italy (IMG:http://metalarea.org/forum/style_images/flags/Italy.png)
*Format: mp3@CBR320kbps
*Size: 56MB

Tracklist:
1. Cleaving the Bones of Your God 03:33
2. The Infernal Herald 03:31
3. As I'm Born in Hell 03:53
4. The Abyssal Portrait 04:31
5. Unconquered Sun Cult 03:36
6. Invictus 04:53
******************************
Total playing time: 23:57




Extended info
InvIcTus wassim Amdouni lead vocal and songwriter
Hugo Spezzacatene programming and keyboard
Ramzi Harzi lead guitar


Technical info
(IMG:http://metalarea.org/images/spectrogram/2019_Oct/2bee1e91f258a9f372ca632b60788009.png)
Input File: 04 - The Abyssal Portrait.mp3
Channels : 2
Sample Rate : 44100
Precision : 16-bit
Duration : 00:04:31.87 = 11989511 samples = 20390.3 CDDA sectors
File Size : 11.1M
Bit Rate : 326k
Sample Encoding: MPEG audio (layer I, II or III)
Comments :
Title=The Abyssal Portrait
Artist=Raven Legacy
Album=Sol Invictus
Tracknumber=4
Year=2019-10-07
Genre=Metal
Discnumber=1



Register


Go to the top of the page
  Insert nick Quick quote
+Quote Post

Reply to this topicStart new topic
1 User(s) are reading this topic (1 Guests and 0 Anonymous Users)
0 Members:

 



- Lo-Fi Version Support form
Copyrights and abuse reports form
Time is now: 22nd October 2019 - 07:12:55