Welcome Guest ( Log In | Register )

> И неформату есть предел.

Рэп/хип-хоп/шансон/поп удаляются. Для них есть свои порталы.

> Mars Red Sky - The Task Eternal (2019), Psychedelic/Stoner Rock (D7)
post Oct 7 2019, 06:31:02
Post #1

Правь статус, ####!111
**************
Group: Металариец
Posts: 46,459
Releases: 717
On Forums: 10 years 11 months
Thanks: 38967 time(s)
Russian Federation


(IMG:http://metalarea.org/images/audiocovers/2019_Oct/acov_tid328453_thumb.jpg)

*Artist: Mars Red Sky
*Album: The Task Eternal
*Year: 2019
*Genre: Psychedelic/Stoner Rock
*Country: France (IMG:http://metalarea.org/forum/style_images/flags/France.png)
*Format: mp3@CBR320kbps
*Size: 122MB

Tracklist:
1. The Proving Grounds 07:55
2. Collector 04:14
3. Recast 07:18
4. Reacts 07:42
5. Crazy Hearth 05:04
6. Hollow King 06:21
7. Soldier On 06:19
8. A Far Cry 04:54
******************************
Total playing time: 49:47

(IMG:http://metalarea.org/images/youtube.png)

Technical info
(IMG:http://metalarea.org/images/spectrogram/2019_Oct/c959b1e57008fe4a71b47f795a4a7afc.png)
Input File: 01. The Proving Grounds.mp3
Channels : 2
Sample Rate : 44100
Precision : 16-bit
Duration : 00:07:55.30 = 20960774 samples = 35647.6 CDDA sectors
File Size : 20.0M
Bit Rate : 337k
Sample Encoding: MPEG audio (layer I, II or III)
Comments :
Title=The Proving Grounds
Artist=Mars Red Sky
Album=The Task Eternal
Tracknumber=1/8
Year=2019
Genre=Rock
Discnumber=1/1



Register


Go to the top of the page
  Insert nick Quick quote
+Quote Post
 
Start new topic
Replies (1 - 4)
post Oct 8 2019, 07:39:28
Post #2

Правь статус, ####!111
**************
Group: Металариец
Posts: 46,459
Releases: 717
On Forums: 10 years 11 months
Thanks: 38967 time(s)
Russian Federation


Хорошечно как и всегда.
Go to the top of the page
  Insert nick Quick quote
+Quote Post
post Oct 8 2019, 09:27:27
Post #3

Dr.
**************
Group: Металариец
Posts: 5,322
Releases: 0
From: Primorye.ru
On Forums: 9 years 2 months
Thanks: 1097 time(s)
Russian Federation


Go to the top of the page
  Insert nick Quick quote
+Quote Post
post Nov 6 2019, 14:20:12
Post #4

####!111
**************
Group: Металариец
Posts: 4,012
Releases: 127
From: The Mountain Of DOOM
On Forums: 12 years 7 months
Thanks: 5578 time(s)
Russian Federation


кроме этой пары треков
ЦИТАТА(vosmidesijatye @ 7th October 2019 - 09:31:02) *
3. Recast 07:18
4. Reacts 07:42

можно ничего с альбома не слушать
а какой шикарный был дебют...
Go to the top of the page
  Insert nick Quick quote
+Quote Post
post Nov 6 2019, 14:29:11
Post #5

Миниманьяк
**************
Group: Металариец
Posts: 2,248
Releases: 12
From: Київ
On Forums: 14 years 3 months
Thanks: 1335 time(s)
Ukraine


Collector ещё, как минимум
Go to the top of the page
  Insert nick Quick quote
+Quote Post

Reply to this topicStart new topic
1 User(s) are reading this topic (1 Guests and 0 Anonymous Users)
0 Members:

 



- Lo-Fi Version Support form
Copyrights and abuse reports form
Time is now: 30th May 2020 - 12:06:56