Welcome Guest ( Log In | Register )

> И неформату есть предел.

Рэп/хип-хоп/шансон/поп удаляются. Для них есть свои порталы.

> Mars Red Sky - The Task Eternal (2019), Psychedelic/Stoner Rock (D7)
post Oct 7 2019, 06:31:02
Post #1

Правь статус, ####!111
**************
Group: Металариец
Posts: 43,403
Releases: 654
On Forums: 10 years 4 months
Thanks: 34471 time(s)
Russian Federation


(IMG:http://metalarea.org/images/audiocovers/2019_Oct/acov_tid328453_thumb.jpg)

*Artist: Mars Red Sky
*Album: The Task Eternal
*Year: 2019
*Genre: Psychedelic/Stoner Rock
*Country: France (IMG:http://metalarea.org/forum/style_images/flags/France.png)
*Format: mp3@CBR320kbps
*Size: 122MB

Tracklist:
1. The Proving Grounds 07:55
2. Collector 04:14
3. Recast 07:18
4. Reacts 07:42
5. Crazy Hearth 05:04
6. Hollow King 06:21
7. Soldier On 06:19
8. A Far Cry 04:54
******************************
Total playing time: 49:47

(IMG:http://metalarea.org/images/youtube.png)

Technical info
(IMG:http://metalarea.org/images/spectrogram/2019_Oct/c959b1e57008fe4a71b47f795a4a7afc.png)
Input File: 01. The Proving Grounds.mp3
Channels : 2
Sample Rate : 44100
Precision : 16-bit
Duration : 00:07:55.30 = 20960774 samples = 35647.6 CDDA sectors
File Size : 20.0M
Bit Rate : 337k
Sample Encoding: MPEG audio (layer I, II or III)
Comments :
Title=The Proving Grounds
Artist=Mars Red Sky
Album=The Task Eternal
Tracknumber=1/8
Year=2019
Genre=Rock
Discnumber=1/1



Register


Go to the top of the page
  Insert nick Quick quote
+Quote Post
 
Start new topic
Replies (1 - 2)
post Oct 8 2019, 07:39:28
Post #2

Правь статус, ####!111
**************
Group: Металариец
Posts: 43,403
Releases: 654
On Forums: 10 years 4 months
Thanks: 34471 time(s)
Russian Federation


Хорошечно как и всегда.
Go to the top of the page
  Insert nick Quick quote
+Quote Post
post Oct 8 2019, 09:27:27
Post #3

Dr.
**************
Group: Металариец
Posts: 5,312
Releases: 0
From: Primorye.ru
On Forums: 8 years 6 months
Thanks: 1084 time(s)
Russian Federation


Go to the top of the page
  Insert nick Quick quote
+Quote Post

Reply to this topicStart new topic
1 User(s) are reading this topic (1 Guests and 0 Anonymous Users)
0 Members:

 



- Lo-Fi Version Support form
Copyrights and abuse reports form
Time is now: 21st October 2019 - 00:38:59