Welcome Guest ( Log In | Register )

> Releases Upload / Добавление релизов

Добавить релиз тут / Click here to add release
Рекомендованные обменники / Recommended file shares

> Cult Of Luna - God Seed Remixes [compilation] (2014), Sludge/Electronics/Industrial/Experimental/Noise
post Oct 7 2019, 06:31:37
Post #1

Маньяк
**********
Group: Металариец
Posts: 1,207
Releases: 91
On Forums: 6 years 4 days
Thanks: 2450 time(s)
Unknown


(IMG:http://metalarea.org/images/audiocovers/2019_Oct/acov_tid328454_thumb.jpg)

*Artist: Cult Of Luna
*Album: God Seed Remixes [compilation]
*Year: 2014
*Genre: Sludge/Electronics/Industrial/Experimental/Noise
*Country: Sweden (IMG:http://metalarea.org/forum/style_images/flags/Sweden.png)
*Format: mp3@CBR320kbps
*Size: 210MB

Tracklist:
01. Passing Through (Beastmilk remix) 3:51
02. Passing Through (Maybeshewill remix) 4:28
03. In Awe Of (Fleshworld remix) 6:57
04. Synchronicity (Obsidian Kingdom remix) 5:04
05. In Awe Of (Whalesong remix) 4:48
06. Passing Through (Echoes Of Yul remix) 6:40
07. Passing Through (Filip Szyszkowski remix) 6:04
08. Passing Through (Whalesong N-Void mix) 6:47
09. Passing Through / In Awe Of (Thot remix) 6:23
10. Passing Through (Petrels remix) 6:06
11. Passing Through (Torog / The Ocean remix) 5:48
12. Passing Through (Shield Patterns remix) 13:52
13. Synchronicity (Whalesong Lugola mix) 7:59
14. Synchronicity (Fleshworld remix) 7:45
******************************
Total playing time: 1:32:32



Technical info
(IMG:http://metalarea.org/images/spectrogram/2019_Oct/9d68ee4ea45d075bf2427ec50605ccc7.png)
Input File: 02. Passing Through (Maybeshewill Remix).mp3
Channels : 2
Sample Rate : 44100
Precision : 16-bit
Duration : 00:04:27.75 = 11807643 samples = 20081 CDDA sectors
File Size : 10.7M
Bit Rate : 320k
Sample Encoding: MPEG audio (layer I, II or III)
Comments :
Title=Passing Through (Maybeshewill Remix)
Artist=Cult Of Luna
Album=Cult Of Luna Remix
Tracknumber=02
Year=2014
Genre=Sludge Metal



Register


Go to the top of the page
  Insert nick Quick quote
+Quote Post
 
Start new topic
Replies (1 - 2)
post Oct 8 2019, 15:44:33
Post #2

Правь статус, ####!111
**************
Group: Металариец
Posts: 43,425
Releases: 657
On Forums: 10 years 4 months
Thanks: 34497 time(s)
Russian Federation


Сладжа у них - как в Айхейтгад джаза.
Go to the top of the page
  Insert nick Quick quote
+Quote Post
post Oct 17 2019, 21:03:34
Post #3

Мегаманьяк
***********
Group: Металариец
Posts: 1,608
Releases: 0
From: Харьков
On Forums: 10 years 3 weeks
Thanks: 639 time(s)
Ukraine


ЦИТАТА(vosmidesijatye @ Oct 8 2019, 17:44:33) *
Сладжа у них - как в Айхейтгад джаза

Что не делает их сколько-нибудь хуже. Предназначение таких релизов мне, правда, всегда было непонятно - ну, кто все эти ремиксы (на одну и ту же песню зачастую, пусть и классную) будет слушать? (IMG:style_emoticons/default/21.gif)
Go to the top of the page
  Insert nick Quick quote
+Quote Post

Reply to this topicStart new topic
1 User(s) are reading this topic (1 Guests and 0 Anonymous Users)
0 Members:

 



- Lo-Fi Version Support form
Copyrights and abuse reports form
Time is now: 22nd October 2019 - 07:29:51