Welcome Guest ( Log In | Register )

> Releases Upload / Добавление релизов

Добавить релиз тут / Click here to add release
Рекомендованные обменники / Recommended file shares

> Nerguth - Novum Aevum [demo] (2019), Atmospheric Black Metal
post Oct 7 2019, 07:15:41
Post #1

Два Литра
**
Group: Завсегдатай
Posts: 181
Releases: 12
On Forums: 8 years 11 months
Thanks: 286 time(s)
Unknown


(IMG:http://metalarea.org/images/audiocovers/2019_Oct/acov_tid328455_thumb.jpg)

*Artist: Nerguth
*Album: Novum Aevum [demo]
*Year: 2019
*Genre: Atmospheric Black Metal
*Country: Ukraine (IMG:http://metalarea.org/forum/style_images/flags/Ukraine.png)
*Format: mp3@CBR320kbps
*Size: 58MB

Tracklist:
1. Journey
2. Aspiration
3. Cognition
******************************
Total playing time: 23:44

Technical info
(IMG:http://metalarea.org/images/spectrogram/2019_Oct/bf505ebb28602bbd7809a0497165cd01.png)
Input File: 3. Cognition.mp3
Channels : 2
Sample Rate : 44100
Precision : 16-bit
Duration : 00:08:38.92 = 22884592 samples = 38919.4 CDDA sectors
File Size : 27.7M
Bit Rate : 427k
Sample Encoding: MPEG audio (layer I, II or III)
Comments :
Title=Cognition
Artist=Nerguth
Album=Novum Aevum
Tracknumber=3/3
Year=2019
Genre=Black Metal



Register


Go to the top of the page
  Insert nick Quick quote
+Quote Post
 
Start new topic
Replies (1 - 2)
post Oct 8 2019, 11:02:05
Post #2

Group: Дух
Posts: 9
Releases: 0
On Forums: 5 months 5 days
Thanks: 1 time(s)
Israel


(IMG:style_emoticons/default/21.gif)
Go to the top of the page
  Insert nick Quick quote
+Quote Post
post Oct 9 2019, 09:04:12
Post #3

Шесть Литров
******
Group: Металариец
Posts: 630
Releases: 0
From: South Of Heaven
On Forums: 12 years 2 months
Thanks: 282 time(s)
Ukraine


(IMG:style_emoticons/default/t2017.gif)
Go to the top of the page
  Insert nick Quick quote
+Quote Post

Reply to this topicStart new topic
1 User(s) are reading this topic (1 Guests and 0 Anonymous Users)
0 Members:

 



- Lo-Fi Version Support form
Copyrights and abuse reports form
Time is now: 22nd October 2019 - 06:48:48