Welcome Guest ( Log In | Register )

> Releases Upload / Добавление релизов

Добавить релиз тут / Click here to add release
Рекомендованные обменники / Recommended file shares

 
Reply to this topicStart new topic
> Gentihaa - Reverse Entropy (2019), Symphonic Death/Black Metal
post Oct 7 2019, 15:01:24
Post #1

MDM-Thrash Metal
**************
Group: Металариец
Posts: 8,902
Releases: 684
From: Одесса
On Forums: 12 years 2 months
Thanks: 18899 time(s)
Ukraine


(IMG:http://metalarea.org/images/audiocovers/2019_Oct/acov_tid328458_thumb.jpg)

*Artist: Gentihaa
*Album: Reverse Entropy
*Year: 2019
*Genre: Symphonic Death/Black Metal
*Country: Greece (IMG:http://metalarea.org/forum/style_images/flags/Greece.png)
*Format: mp3@CBR320kbps
*Size: 101MB

Tracklist:
1. Serum 01:42 instrumental
2. Empathy 03:37
3. Vision 05:16
4. Metamorphosis 05:53
5. Alpha 03:43
6. Beyond 05:42
7. Command 03:59
8. Mastery 05:02
9. Singularity 06:45
******************************
Total playing time: 41:39



(IMG:http://metalarea.org/images/youtube.png)

Extended info
Béheaal Bass
See also: Memorain, ex-Circus Witches, ex-Gas Mass
Merenhor Drums
See also: Diablery, Moral Corruption
Valgran Guitars
See also: ex-Collizion Zero, ex-The Enochian
Rös Dracùl Guitars
See also: ex-Keepers of Jericho
Andre Vocals
See also: Sonata Antartika, Wings in Motion, Dead South Dealers, ex-Memorain


Technical info
(IMG:http://metalarea.org/images/spectrogram/2019_Oct/8dd1151fa627b2c4d728190f55633ce3.png)
Input File: 02 Empathy.mp3
Channels : 2
Sample Rate : 44100
Precision : 16-bit
Duration : 00:03:38.00 = 9613932 samples = 16350.2 CDDA sectors
File Size : 10.4M
Bit Rate : 382k
Sample Encoding: MPEG audio (layer I, II or III)
Comments :
Title=Empathy
Artist=Gentihaa
Album=Reverse Entropy
Tracknumber=2
Year=2019



Register


Go to the top of the page
  Insert nick Quick quote
+Quote Post

Reply to this topicStart new topic
1 User(s) are reading this topic (1 Guests and 0 Anonymous Users)
0 Members:

 



- Lo-Fi Version Support form
Copyrights and abuse reports form
Time is now: 22nd October 2019 - 07:50:42