Welcome Guest ( Log In | Register )

> Releases Upload / Добавление релизов

Добавить релиз тут / Click here to add release
Рекомендованные обменники / Recommended file shares

> Carcinoid - Metastatic Declination (2019), Death/Doom Metal
post Oct 7 2019, 15:24:21
Post #1

Правь статус, ####!111
**************
Group: Металариец
Posts: 19,102
Releases: 12898
From: Г.Харьков
On Forums: 7 years 5 months
Thanks: 221303 time(s)
Unknown


(IMG:http://metalarea.org/images/audiocovers/2019_Oct/acov_tid328459_thumb.jpg)

*Artist: Carcinoid
*Album: Metastatic Declination
*Year: 2019
*Genre: Death/Doom Metal
*Country: Australia (IMG:http://metalarea.org/forum/style_images/flags/Australia.png)
*Format: mp3@CBR320kbps
*Size: 105MB

Tracklist:
1. Dread 00:51
2. Sorrow 05:04
3. Rotting Breath 05:55
4. The Drowning 07:21
5. Ravenous Being 05:19
6. Metastatic Declination 07:09
7. Suffering Reborn 06:06
8. Sickness 06:54
******************************
Total playing time: 44:39




Extended info
Jess Bass (2018-present)
See also: Cracked Tapes, ex-Spawn
Carter Drums (2018-present)
See also: ex-Bury the Existence, ex-Hobo Magic
Az Guitars (2018-present)
See also: Creep Diets, Reaper, Xenos, ex-Pregnancy, Brain Drain, Cracked Tapes, Pralines and Dick, ex-Emprica, ex-Journal of a Deadman, ex-Null the Void, ex-Where Did the Baby Go?
Josh Vocals (2018-present)
See also: Dungeons of Blood, ex-Eternal Rest, ex-The Fevered


Technical info
(IMG:http://metalarea.org/images/spectrogram/2019_Oct/889230be108e3daa1359015dfe0402c6.png)
Input File: 03. Rotting Beneath.mp3
Channels : 2
Sample Rate : 44100
Precision : 16-bit
Duration : 00:05:55.34 = 15670494 samples = 26650.5 CDDA sectors
File Size : 14.6M
Bit Rate : 329k
Sample Encoding: MPEG audio (layer I, II or III)
Comments :
Title=Rotting Beneath
Artist=Carcinoid
Album=Metastatic Delination
Year=2019
Genre=Death



Register


Go to the top of the page
  Insert nick Quick quote
+Quote Post
 
Start new topic
Replies (1 - 6)
post Oct 8 2019, 08:10:38
Post #2

Правь статус, ####!111
**************
Group: Металариец
Posts: 43,424
Releases: 657
On Forums: 10 years 4 months
Thanks: 34496 time(s)
Russian Federation


Обложка (IMG:style_emoticons/default/19.gif)

По превью - могильная вкусняшка.
Go to the top of the page
  Insert nick Quick quote
+Quote Post
post Oct 8 2019, 18:19:37
Post #3

Group: Дух
Posts: 4
Releases: 0
On Forums: 4 months 1 week
Thanks: 2 time(s)
Unknown


Поправьте тэги и не вводите людей в заблуждение. Это обычный олдскульный дэт, просто медленный. Дума здесь нет ВАЩЕ!
Go to the top of the page
  Insert nick Quick quote
+Quote Post
post Oct 8 2019, 18:24:12
Post #4

Group: Подсевший
Posts: 25
Releases: 1
On Forums: 4 years 2 months
Thanks: 44 time(s)
Unknown


Неплохая дискотека (IMG:style_emoticons/default/banana.gif)
Go to the top of the page
  Insert nick Quick quote
+Quote Post
post Oct 8 2019, 18:55:57
Post #5

Шесть Литров
******
Group: Металариец
Posts: 649
Releases: 0
From: where the sun slumbers
On Forums: 11 years 4 months
Thanks: 271 time(s)
Unknown


QUOTE(Satanspell @ Oct 8 2019, 20:19:37) *
Поправьте тэги и не вводите людей в заблуждение. Это обычный олдскульный дэт, просто медленный. Дума здесь нет ВАЩЕ!

Это какого дума нету, когда медленно и пЫчально? (IMG:style_emoticons/default/1488.gif)
Вот включаю The Drowning и льется тягучий, породистый, грувовый думец...
Хотя согласен, релиз по сути дэтовый.
Go to the top of the page
  Insert nick Quick quote
+Quote Post
post Oct 10 2019, 13:13:42
Post #6

Правь статус, ####!111
**************
Group: Металариец
Posts: 2,681
Releases: 8
From: Dnipro
On Forums: 11 years 3 months
Thanks: 834 time(s)
Ukraine


ЦИТАТА(Satanspell @ Oct 8 2019, 20:19:37) *
Поправьте тэги и не вводите людей в заблуждение. Это обычный олдскульный дэт, просто медленный. Дума здесь нет ВАЩЕ!

На бэндкампе группа сама написала :
Crushing Death/Doom
Go to the top of the page
  Insert nick Quick quote
+Quote Post
post Oct 10 2019, 13:33:46
Post #7

Правь статус, ####!111
**************
Group: Металариец
Posts: 43,424
Releases: 657
On Forums: 10 years 4 months
Thanks: 34496 time(s)
Russian Federation


ЦИТАТА(isvili @ Oct 10 2019, 15:13:42) *
На бэндкампе группа сама написала :
Crushing Death/Doom


Ну группы порой на БК такого понапишут о своих стилях, что только держись (IMG:style_emoticons/default/1488.gif) (IMG:style_emoticons/default/25.gif)
Go to the top of the page
  Insert nick Quick quote
+Quote Post

Reply to this topicStart new topic
1 User(s) are reading this topic (1 Guests and 0 Anonymous Users)
0 Members:

 



- Lo-Fi Version Support form
Copyrights and abuse reports form
Time is now: 22nd October 2019 - 07:07:01