Welcome Guest ( Log In | Register )

> Releases Upload / Добавление релизов

Добавить релиз тут / Click here to add release
Рекомендованные обменники / Recommended file shares

 
Reply to this topicStart new topic
> Swamp Nuts - Swamp Nuts (2019), Porno Goregrind (D6)
post Oct 7 2019, 16:38:40
Post #1

Serial Uploader
Group Icon
Group: V.I.P
Posts: 36,306
Releases: 34500
From: Lithuania
On Forums: 11 years 4 months
Thanks: 401644 time(s)
Lithuania


(IMG:https://metalarea.org/images/audiocovers/2019_Oct/acov_tid328467_thumb.jpg)

*Artist: Swamp Nuts
*Album: Swamp Nuts
*Year: 2019
*Genre: Porno Goregrind
*Country: United States (IMG:https://metalarea.org/forum/style_images/flags/United%20States.png)
*Format: mp3@CBR320kbps
*Size: 106MB

Tracklist:
01. The Magical Fruit 01:47
02. Urinal Cake 00:25
03. Turtle Heads & Yellow Snakes 01:22
04. Alphabets Poup 00:49
05. Cum Dumpster Diving 02:01
06. Donkey Show And Tell 02:13
07. Puffer Fish Enema 01:38
08. Gay Things With Pool-Noodle 00:40
09. Dong's Karate 02:07
10. The Mindful Nut 01:38
11. Mahi-Mahi Masturbation 01:22
12. Stew Of The Mule 01:39
13. Horsecock Hotline 01:40
14. Swamp Nuts 01:21
15. Deep-Fried Dick 01:28
16. Shit Kebab 02:15
17. Jackin' At The Jack Shack 01:27
18. Fleeing The Flatulent Phantom 01:59
19. Loose Goose (Not So Spruce) 01:28
20. Urination Nation 01:09
21. Feces Mural 01:16
22. Pinecone Penetration 00:54
23. Poo-Poo Platter 00:53
24. Fistin' Mittens 01:31
25. Panic! At Gay Bar 01:08
26. Hickory Dickory Cock 01:17
27. Buttplug Is Of Beehives 01:22
28. Buttcracker's Suite 01:05
29. Ass Nugget 01:43
30. Rise Of The Pant Antler 10:01
******************************
Total playing time: 51:38





Technical info
(IMG:https://metalarea.org/images/spectrogram/2019_Oct/4c2b69686e1a241d4b1fbf29d0782932.png)
Input File: 11. Mahi-Mahi Masturbation.mp3
Channels : 2
Sample Rate : 44100
Precision : 16-bit
Duration : 00:01:22.47 = 3637059 samples = 6185.47 CDDA sectors
File Size : 3.46M
Bit Rate : 336k
Sample Encoding: MPEG audio (layer I, II or III)
Comments :
Title=Mahi-Mahi Masturbation
Artist=Swamp Nuts
Album=SWAMP NUTS
Tracknumber=11
Year=2019



Register


Go to the top of the page
  Insert nick Quick quote
+Quote Post

Reply to this topicStart new topic
1 User(s) are reading this topic (1 Guests and 0 Anonymous Users)
0 Members:

 



- Lo-Fi Version Support form
Copyrights and abuse reports form
Time is now: 22nd October 2019 - 07:14:09