Welcome Guest ( Log In | Register )

> Releases Upload / Добавление релизов

Добавить релиз тут / Click here to add release
Рекомендованные обменники / Recommended file shares

> Alunah - Violet Hour (2019), Doom/Stoner Metal
post Oct 7 2019, 16:59:41
Post #1

Каждое ваше "Спасибо" помогает мне понять, что я делаю новости не напрасно.
**************
Group: Металариец
Posts: 2,003
Releases: 1758
From: Одесса
On Forums: 11 years 4 months
Thanks: 15244 time(s)
Ukraine


(IMG:http://metalarea.org/images/audiocovers/2019_Oct/acov_tid328468_thumb.jpg)

*Artist: Alunah
*Album: Violet Hour
*Year: 2019
*Genre: Doom/Stoner Metal
*Country: United Kingdom (IMG:http://metalarea.org/forum/style_images/flags/United%20Kingdom.png)
*Format: mp3@CBR266kbps
*Size: 87MB

Tracklist:
1.Trapped and Bound 04:57
2.Dance of Deceit 03:53
3.Hunt 05:38
4.Hypnotised 06:10
5.Violet Hour 04:23
6.Unholy Disease 04:55
7.Velvet 06:21
8.Lake of Fire 06:33
******************************
Total playing time: 42:50



Extended info
Line - up:

Jake Mason - Drums
Dan Burchmore - Bass
Siân Greenaway - Vocals (ex-Bear Legs)
Dean Ashton - Guitars (Diamond Head)

(IMG:https://f4.bcbits.com/img/0015691594_10.jpg)


Technical info
(IMG:http://metalarea.org/images/spectrogram/2019_Oct/8e4e2c9720edca909b377eeeb40d75f6.png)
Input File: 07-alunah-velvet-noir.mp3
Channels : 2
Sample Rate : 44100
Precision : 16-bit
Duration : 00:06:21.86 = 16839894 samples = 28639.3 CDDA sectors
File Size : 12.6M
Bit Rate : 265k
Sample Encoding: MPEG audio (layer I, II or III)
Comments :
Title=Velvet
Artist=Alunah
Album=Violet Hour
Tracknumber=7
Year=2019
Genre=Doom/Stoner Metal



Register


Go to the top of the page
  Insert nick Quick quote
+Quote Post
 
Start new topic
Replies (1 - 2)
post Oct 9 2019, 09:12:48
Post #2

Правь статус, ####!111
**************
Group: Металариец
Posts: 43,420
Releases: 657
On Forums: 10 years 4 months
Thanks: 34496 time(s)
Russian Federation


Кручинин опять шифруется в шапочке из фольги, а альбом хорошечный как и новая мадам на вокале.
Go to the top of the page
  Insert nick Quick quote
+Quote Post
post Oct 15 2019, 16:19:09
Post #3

убивай меломанов
********
Group: Металариец
Posts: 836
Releases: 6
On Forums: 9 years 1 month
Thanks: 1086 time(s)
Ukraine


никаким стонером тут и не пахнет, слава сатане.
слегка задумленный и весьма пристойный оккультный хардец, 666-й пробы, не ниже.
Go to the top of the page
  Insert nick Quick quote
+Quote Post

Reply to this topicStart new topic
1 User(s) are reading this topic (1 Guests and 0 Anonymous Users)
0 Members:

 



- Lo-Fi Version Support form
Copyrights and abuse reports form
Time is now: 22nd October 2019 - 06:42:22