Welcome Guest ( Log In | Register )

> Alunah - Violet Hour (2019), Doom/Stoner Metal
post Oct 7 2019, 16:59:41
Post #1

Правь статус, ####!111
**************
Group: Металариец
Posts: 2,810
Releases: 2513
From: Одесса
On Forums: 12 years 1 day
Thanks: 23947 time(s)
Ukraine


(IMG:http://metalarea.org/images/audiocovers/2019_Oct/acov_tid328468_thumb.jpg)

*Artist: Alunah
*Album: Violet Hour
*Year: 2019
*Genre: Doom/Stoner Metal
*Country: United Kingdom (IMG:http://metalarea.org/forum/style_images/flags/United%20Kingdom.png)
*Format: mp3@CBR266kbps
*Size: 87MB

Tracklist:
1.Trapped and Bound 04:57
2.Dance of Deceit 03:53
3.Hunt 05:38
4.Hypnotised 06:10
5.Violet Hour 04:23
6.Unholy Disease 04:55
7.Velvet 06:21
8.Lake of Fire 06:33
******************************
Total playing time: 42:50



Extended info
Line - up:

Jake Mason - Drums
Dan Burchmore - Bass
Siân Greenaway - Vocals (ex-Bear Legs)
Dean Ashton - Guitars (Diamond Head)

(IMG:https://f4.bcbits.com/img/0015691594_10.jpg)


Technical info
(IMG:http://metalarea.org/images/spectrogram/2019_Oct/8e4e2c9720edca909b377eeeb40d75f6.png)
Input File: 07-alunah-velvet-noir.mp3
Channels : 2
Sample Rate : 44100
Precision : 16-bit
Duration : 00:06:21.86 = 16839894 samples = 28639.3 CDDA sectors
File Size : 12.6M
Bit Rate : 265k
Sample Encoding: MPEG audio (layer I, II or III)
Comments :
Title=Velvet
Artist=Alunah
Album=Violet Hour
Tracknumber=7
Year=2019
Genre=Doom/Stoner Metal



Register


Go to the top of the page
  Insert nick Quick quote
+Quote Post
 
Start new topic
Replies (1 - 5)
post Oct 9 2019, 09:12:48
Post #2

Правь статус, ####!111
**************
Group: Металариец
Posts: 46,483
Releases: 718
On Forums: 11 years 2 days
Thanks: 39014 time(s)
Russian Federation


Кручинин опять шифруется в шапочке из фольги, а альбом хорошечный как и новая мадам на вокале.
Go to the top of the page
  Insert nick Quick quote
+Quote Post
post Oct 15 2019, 16:19:09
Post #3

убивай меломанов
*********
Group: Металариец
Posts: 925
Releases: 6
On Forums: 9 years 8 months
Thanks: 1226 time(s)
Ukraine


никаким стонером тут и не пахнет, слава сатане.
слегка задумленный и весьма пристойный оккультный хардец, 666-й пробы, не ниже.
Go to the top of the page
  Insert nick Quick quote
+Quote Post
post Mar 6 2020, 06:33:02
Post #4

Кожаный ублюдок
**************
Group: Металариец
Posts: 3,198
Releases: 6
From: Алчевск (early) Некросибирск (now)
On Forums: 11 years 1 month
Thanks: 2018 time(s)
Russian Federation


Разбирая залежи прошлогодней музыки конечно же никак нельзя было обойти стороной альбом британцев Alunah, тем более что после EP «Amber & Gold» нужно было обязательно оценить их новую вокалистку, но уже в полноформате. Что же из этого всего вышло? Вот теперь и узнаем. Конечно же общее впечатление можно было составить уже по вышеупомянутому минику, но все же для окончательного мнения лонгплей был бы более интересен.
Думаю, многие из тех, кто слышал предыдущий миник уже тогда поняли, что будущий опус станет отличным от прошлых релизов. Собственно, так оно и вышло. На «Violent Hour» мы получили в большей степени психоделичный рок с женским вокалом, из схожих на ум приходит Blood Ceremony, разве что влияние дума у британцев пока что более ощутимо, хоть и не факт, что оно задержится. Стоунера, указанного в самом начале, нет и в помине. В остальном же это очередная команда, оставшаяся под старым названием, но у которой со сменой фронтвумен сменился и стиль, пускай пока и не кардинально. И тем более это заметно, когда начинаешь слушать прошлые работы.
И что же в итоге: если честно, то я вообще не против того, что произошло с данным коллективом, мне по вкусу как то, что они делали ранее, так и то, что они делают сейчас. Музыка и вокал прекрасны как у госпожи Дэй, так и госпожи Гринуэй. Просто иногда превращаешься в противного старика и хочется побурчать как «раньше было лучше». Тем, кто еще не слушал данный альбом, я его очень рекомендую. (IMG:style_emoticons/default/9.gif) (IMG:style_emoticons/default/9.gif) (IMG:style_emoticons/default/9.gif)
Go to the top of the page
  Insert nick Quick quote
+Quote Post
post Mar 6 2020, 11:02:28
Post #5

ΕΥΜΕΝΙΔΕΣ
**************
Group: Металариец
Posts: 2,364
Releases: 27
From: Kænugarður
On Forums: 13 years 3 months
Thanks: 3247 time(s)
Ukraine


320 kbps:
Register
Go to the top of the page
  Insert nick Quick quote
+Quote Post
post Mar 6 2020, 11:14:38
Post #6

И Ван Дамм По Делам Вашим!
**************
Group: Металариец
Posts: 19,083
Releases: 26
On Forums: 11 years 11 months
Thanks: 10630 time(s)
Honduras


Alunah младший брат А, ну нах и Да ну нах!а (IMG:style_emoticons/default/1488.gif)
Go to the top of the page
  Insert nick Quick quote
+Quote Post

Reply to this topicStart new topic
1 User(s) are reading this topic (1 Guests and 0 Anonymous Users)
0 Members:

 



- Lo-Fi Version Support form
Copyrights and abuse reports form
Time is now: 4th June 2020 - 04:48:32