Welcome Guest ( Log In | Register )

> И неформату есть предел.

Рэп/хип-хоп/шансон/поп удаляются. Для них есть свои порталы.

 
Reply to this topicStart new topic
> Mayfair - … Frevel … (2019), Progressive Rock/Psychedelic (D7)
post Oct 7 2019, 17:25:43
Post #1

Groovy
****
Group: Металариец
Posts: 369
Releases: 55
From: Владимирская обл.
On Forums: 12 years 10 months
Thanks: 912 time(s)
Russian Federation


(IMG:https://metalarea.org/images/audiocovers/2019_Oct/acov_tid328469_thumb.jpg)

*Artist: Mayfair
*Album: … Frevel …
*Year: 2019
*Genre: Progressive Rock/Psychedelic
*Country: Austria (IMG:https://metalarea.org/forum/style_images/flags/Austria.png)
*Format: mp3@CBR320kbps
*Size: 105MB

Tracklist:
1.Evil Christine 03:25
2.Hinter dem Leben 03:50
3.Ungetaktet 03:28
4.Himmel in Gefahr 03:38
5.Gestern und nicht heut' 03:12
6.Hitze 04:50
7.Der Teufel 03:14
8.Atme (Frevel) 06:20
9.Annelies 03:14
10.Phosphor 03:29
11.Das Ufer hat Zeit 04:57
******************************
Total playing time: 43:37

Extended info


Technical info
(IMG:https://metalarea.org/images/spectrogram/2019_Oct/da22b19da1bf545885daab6ea19fe6e2.png)
Input File: 01. Evil Christine.mp3
Channels : 2
Sample Rate : 44100
Precision : 16-bit
Duration : 00:03:25.57 = 9065725 samples = 15417.9 CDDA sectors
File Size : 8.26M
Bit Rate : 321k
Sample Encoding: MPEG audio (layer I, II or III)
Comments :
Title=Evil Christine
Artist=Mayfair
Album=Frevel
Tracknumber=1
Year=2019
Genre=Progressive Metal



Register


Thanks:
(2) gena, Olethros,
Go to the top of the page
  Insert nick Quick quote
+Quote Post

Reply to this topicStart new topic
1 User(s) are reading this topic (1 Guests and 0 Anonymous Users)
0 Members:

 



- Lo-Fi Version Support form
Copyrights and abuse reports form
Time is now: 21st October 2019 - 01:24:39