Welcome Guest ( Log In | Register )

> Dysangelium - Death Leading (2019), Black Metal
post Oct 7 2019, 17:43:20
Post #1

Маньяк
**********
Group: Металариец
Posts: 1,114
Releases: 940
From: Новороссийск
On Forums: 9 years 1 month
Thanks: 17832 time(s)
Russian Federation


(IMG:https://metalarea.org/images/audiocovers/2019_Oct/acov_tid328470_thumb.jpg)

*Artist: Dysangelium
*Album: Death Leading
*Year: 2019
*Genre: Black Metal
*Country: Germany (IMG:https://metalarea.org/forum/style_images/flags/Germany.png)
*Format: mp3@CBR320kbps
*Size: 92MB

Tracklist:
01. XIII 01:20
02. Fated 05:40
03. Homo Larvalis 05:28
04. Death Leading 04:22
05. The Great Work 06:17
06. Through Henbane Nebulah 05:25
07. Venus Inverse 04:45
08. When Death And Devil Rise 06:40
******************************
Total playing time: 40:00




Extended info


Technical info
(IMG:https://metalarea.org/images/spectrogram/2019_Oct/0be1f9a35323789ab94670a8b53779bd.png)
Input File: 02. Fated.mp3
Channels : 2
Sample Rate : 48000
Precision : 16-bit
Duration : 00:05:40.11 = 16325136 samples ~ 25508 CDDA sectors
File Size : 13.6M
Bit Rate : 320k
Sample Encoding: MPEG audio (layer I, II or III)
Comments :
Title=Fated
Artist=Dysangelium
Album=Death Leading
Tracknumber=02
Year=2019
Genre=Black Metal



Register


Go to the top of the page
  Insert nick Quick quote
+Quote Post
 
Start new topic
Replies (1 - 6)
post Oct 8 2019, 11:47:54
Post #2

Crush! Kill! Destroy!
**************
Group: Металариец
Posts: 5,369
Releases: 15
From: Kaliningrad
On Forums: 12 years 6 months
Thanks: 5016 time(s)
Russian Federation


Превосходно!
Первый альбом вроде был в духе Dissection, а тут поехали в набившую оскомину ортодоксовщину аля Ofermod, но круто получилось!
Go to the top of the page
  Insert nick Quick quote
+Quote Post
post Oct 8 2019, 18:42:55
Post #3

Правь статус, ####!111
**************
Group: Металариец
Posts: 2,006
Releases: 1586
From: Praha
On Forums: 6 years 1 month
Thanks: 40367 time(s)
Czech Republic


(IMG:https://i86.fastpic.ru/big/2019/1008/2d/345706ba580d7e6b57ae6d4543196c2d.jpg)

Dysangelium - 2019 - Death Leading
World Terror Committee - W.T.C.176

Bandcamp 320 Kbps @ Yadi.sk
Register



Go to the top of the page
  Insert nick Quick quote
+Quote Post
post Oct 8 2019, 19:34:05
Post #4

Два Литра
**
Group: Завсегдатай
Posts: 199
Releases: 0
From: Киев
On Forums: 10 years 7 months
Thanks: 62 time(s)
Unknown


https://mega.nz/#F!8ihwBYBI!ht8HdWEWVpOMWaMaw5JXfQ

... у меня ассоциации с крайним Arfsynd .


Thanks:
Go to the top of the page
  Insert nick Quick quote
+Quote Post
post Oct 8 2019, 20:46:46
Post #5

Правь статус, ####!111
**************
Group: Металариец
Posts: 21,938
Releases: 15137
From: Г.Харьков
On Forums: 8 years 3 weeks
Thanks: 274758 time(s)
Unknown


ЦИТАТА(FlammenTod666 @ 8th October 2019 - 20:05:01) *
flac?

FLAC (Tracks) 289 mb
Register


Go to the top of the page
  Insert nick Quick quote
+Quote Post
post Oct 8 2019, 20:48:45
Post #6

While Waiting the Worms
**********
Group: Металариец
Posts: 1,014
Releases: 0
On Forums: 6 years 5 months
Thanks: 1408 time(s)
Unknown


Full album stream.

Go to the top of the page
  Insert nick Quick quote
+Quote Post
post Oct 28 2019, 20:36:05
Post #7
BAN
Banned till
Jun 20 2038, 18:19:39



вокал внезапно дичайше напомнил ян-криса де койера из gorefest. что только в плюс, разумеется, хотя музыка и без того весьма примечательна. прекрасная работа!
Go to the top of the page
  Insert nick Quick quote
+Quote Post

Reply to this topicStart new topic
1 User(s) are reading this topic (1 Guests and 0 Anonymous Users)
0 Members:

 



- Lo-Fi Version Support form
Copyrights and abuse reports form
Time is now: 4th June 2020 - 06:39:16