Welcome Guest ( Log In | Register )

> Releases Upload / Добавление релизов

Добавить релиз тут / Click here to add release
Рекомендованные обменники / Recommended file shares

> Dysangelium - Death Leading (2019), Black Metal
post Oct 7 2019, 17:43:20
Post #1

Маньяк
**********
Group: Металариец
Posts: 1,005
Releases: 842
From: Новороссийск
On Forums: 8 years 5 months
Thanks: 14983 time(s)
Russian Federation


(IMG:https://metalarea.org/images/audiocovers/2019_Oct/acov_tid328470_thumb.jpg)

*Artist: Dysangelium
*Album: Death Leading
*Year: 2019
*Genre: Black Metal
*Country: Germany (IMG:https://metalarea.org/forum/style_images/flags/Germany.png)
*Format: mp3@CBR320kbps
*Size: 92MB

Tracklist:
01. XIII 01:20
02. Fated 05:40
03. Homo Larvalis 05:28
04. Death Leading 04:22
05. The Great Work 06:17
06. Through Henbane Nebulah 05:25
07. Venus Inverse 04:45
08. When Death And Devil Rise 06:40
******************************
Total playing time: 40:00




Extended info


Technical info
(IMG:https://metalarea.org/images/spectrogram/2019_Oct/0be1f9a35323789ab94670a8b53779bd.png)
Input File: 02. Fated.mp3
Channels : 2
Sample Rate : 48000
Precision : 16-bit
Duration : 00:05:40.11 = 16325136 samples ~ 25508 CDDA sectors
File Size : 13.6M
Bit Rate : 320k
Sample Encoding: MPEG audio (layer I, II or III)
Comments :
Title=Fated
Artist=Dysangelium
Album=Death Leading
Tracknumber=02
Year=2019
Genre=Black Metal



Register


Go to the top of the page
  Insert nick Quick quote
+Quote Post
 
Start new topic
Replies (1 - 5)
post Oct 8 2019, 11:47:54
Post #2

Crush! Kill! Destroy!
**************
Group: Металариец
Posts: 5,089
Releases: 15
From: Kaliningrad
On Forums: 11 years 11 months
Thanks: 4676 time(s)
Russian Federation


Превосходно!
Первый альбом вроде был в духе Dissection, а тут поехали в набившую оскомину ортодоксовщину аля Ofermod, но круто получилось!
Go to the top of the page
  Insert nick Quick quote
+Quote Post
post Oct 8 2019, 18:42:55
Post #3

Мегаманьяк
***********
Group: Металариец
Posts: 1,810
Releases: 1430
From: Prešov
On Forums: 5 years 6 months
Thanks: 34780 time(s)
Slovakia


(IMG:https://i86.fastpic.ru/big/2019/1008/2d/345706ba580d7e6b57ae6d4543196c2d.jpg)

Dysangelium - 2019 - Death Leading
World Terror Committee - W.T.C.176

Bandcamp 320 Kbps @ Yadi.sk
Register



Go to the top of the page
  Insert nick Quick quote
+Quote Post
post Oct 8 2019, 19:34:05
Post #4

Два Литра
**
Group: Завсегдатай
Posts: 127
Releases: 0
From: Киев
On Forums: 10 years 1 week
Thanks: 38 time(s)
Unknown


https://mega.nz/#F!8ihwBYBI!ht8HdWEWVpOMWaMaw5JXfQ

... у меня ассоциации с крайним Arfsynd .


Thanks:
Go to the top of the page
  Insert nick Quick quote
+Quote Post
post Oct 8 2019, 20:46:46
Post #5

Правь статус, ####!111
**************
Group: Металариец
Posts: 19,102
Releases: 12898
From: Г.Харьков
On Forums: 7 years 5 months
Thanks: 221316 time(s)
Unknown


ЦИТАТА(FlammenTod666 @ 8th October 2019 - 20:05:01) *
flac?

FLAC (Tracks) 289 mb
Register


Go to the top of the page
  Insert nick Quick quote
+Quote Post
post Oct 8 2019, 20:48:45
Post #6

While Waiting the Worms
********
Group: Металариец
Posts: 898
Releases: 0
On Forums: 5 years 9 months
Thanks: 1208 time(s)
Unknown


Full album stream.

Go to the top of the page
  Insert nick Quick quote
+Quote Post

Reply to this topicStart new topic
1 User(s) are reading this topic (1 Guests and 0 Anonymous Users)
0 Members:

 



- Lo-Fi Version Support form
Copyrights and abuse reports form
Time is now: 22nd October 2019 - 07:44:48