Welcome Guest ( Log In | Register )

> Releases Upload / Добавление релизов

Добавить релиз тут / Click here to add release
Рекомендованные обменники / Recommended file shares

> Domination - На Пределе (2019), Melodic Death/Power Metal (D17)
post Oct 7 2019, 19:44:52
Post #1

Четыре Литра
****
Group: Металариец
Posts: 359
Releases: 14
On Forums: 10 years 11 months
Thanks: 301 time(s)
Russian Federation


(IMG:http://metalarea.org/images/audiocovers/2019_Oct/acov_tid328472_thumb.jpg)

*Artist: Domination
*Album: На Пределе
*Year: 2019
*Genre: Melodic Death/Power Metal
*Country: Russian Federation (IMG:http://metalarea.org/forum/style_images/flags/Russian%20Federation.png)
*Format: mp3@CBR320kbps
*Size: 69MB

Tracklist:
1. Битва 02:51
2. На пределе 03:18
3. Обман 03:18
4. Зона комфорта 03:37
5. Шторм 04:35
6. Маски 03:39
7. Не спасти 03:58
8. Теряя себя 04:36
******************************
Total playing time: 29:52

Technical info
(IMG:http://metalarea.org/images/spectrogram/2019_Oct/f7c4003f63932182c8694f31720a6afc.png)
Input File: 02-На пределе.mp3
Channels : 2
Sample Rate : 44100
Precision : 16-bit
Duration : 00:03:18.29 = 8744545 samples = 14871.7 CDDA sectors
File Size : 7.93M
Bit Rate : 320k
Sample Encoding: MPEG audio (layer I, II or III)
Comments :
Title=На пределе
Artist=DomiNatioN
Album=На пределе
Tracknumber=2
Year=2019
Genre=Melodic Death Metal | Modern Metal



Register


Go to the top of the page
  Insert nick Quick quote
+Quote Post
 
Start new topic
Replies (1 - 8)
post Oct 8 2019, 08:35:19
Post #2

Два Литра
**
Group: Завсегдатай
Posts: 118
Releases: 0
On Forums: 12 years 6 months
Thanks: 104 time(s)
Russian Federation




Go to the top of the page
  Insert nick Quick quote
+Quote Post
post Oct 8 2019, 08:36:48
Post #3

Правь статус, ####!111
**************
Group: Металариец
Posts: 43,420
Releases: 657
On Forums: 10 years 4 months
Thanks: 34496 time(s)
Russian Federation




Thanks:
Go to the top of the page
  Insert nick Quick quote
+Quote Post
post Oct 8 2019, 10:37:29
Post #4

тебе 28, а ты все реверсами балуешься
***********
Group: Металариец
Posts: 1,733
Releases: 4
On Forums: 11 years 2 months
Thanks: 495 time(s)
Russian Federation


Текст бы поинтереснее, а так очень радует подача, работа со звуком, рифачки, вокал.
Очень достойно (IMG:style_emoticons/default/20.gif)
Go to the top of the page
  Insert nick Quick quote
+Quote Post
post Oct 8 2019, 13:11:17
Post #5

Четыре Литра
****
Group: Металариец
Posts: 359
Releases: 14
On Forums: 10 years 11 months
Thanks: 301 time(s)
Russian Federation


Mirror
Register
Go to the top of the page
  Insert nick Quick quote
+Quote Post
post Oct 9 2019, 08:46:39
Post #6

MDM-Thrash Metal
**************
Group: Металариец
Posts: 8,902
Releases: 684
From: Одесса
On Forums: 12 years 2 months
Thanks: 18898 time(s)
Ukraine


ЦИТАТА(VLADISLAV_V_K @ Oct 7 2019, 21:44:52) *
*Genre: Melodic Death

(IMG:style_emoticons/default/hmm.gif)
Go to the top of the page
  Insert nick Quick quote
+Quote Post
post Oct 9 2019, 11:36:54
Post #7

Четыре Литра
****
Group: Металариец
Posts: 359
Releases: 14
On Forums: 10 years 11 months
Thanks: 301 time(s)
Russian Federation


Andrew,
В стилях не очень разбираюсь (IMG:style_emoticons/default/crazy.gif) , как говорится, слушаю сердцем, то, что нравится (IMG:style_emoticons/default/20.gif)
Сверился с Архивами (IMG:style_emoticons/default/pray.gif)
Там так написано (IMG:style_emoticons/default/look.gif)
https://www.metal-archives.com/bands/Domination/3540369237
Go to the top of the page
  Insert nick Quick quote
+Quote Post
post Oct 9 2019, 13:30:14
Post #8

Dark Ambient Shoujo
**********
Group: Металариец
Posts: 1,184
Releases: 1
On Forums: 10 years 9 months
Thanks: 601 time(s)
Russian Federation


Вокалы для такой музыки совершенно не в тему. Для мдма не хватает скорости и тяжести, а для павера они точно не нужны. В целом обычная проблема для молодых групп: хотим сыграть всё и сразу, намешаем несколько стилей и получим несварение.


Thanks:
(1) Ghostb,
Go to the top of the page
  Insert nick Quick quote
+Quote Post
post Oct 9 2019, 15:23:25
Post #9

Девять Литров
*********
Group: Металариец
Posts: 901
Releases: 0
From: Харьков
On Forums: 11 years 7 months
Thanks: 699 time(s)
Ukraine


Вокал все портит. Можно привыкнуть, но не хочется.


Thanks:
Go to the top of the page
  Insert nick Quick quote
+Quote Post

Reply to this topicStart new topic
2 User(s) are reading this topic (2 Guests and 0 Anonymous Users)
0 Members:

 



- Lo-Fi Version Support form
Copyrights and abuse reports form
Time is now: 22nd October 2019 - 06:41:44