Welcome Guest ( Log In | Register )

> Releases Upload / Добавление релизов

Добавить релиз тут / Click here to add release
Рекомендованные обменники / Recommended file shares

> Valkyrie - Choosers Of The Slain [ep] (2019), Thrash Metal
post Oct 7 2019, 19:53:46
Post #1

Правь статус, ####!111
**************
Group: Металариец
Posts: 19,102
Releases: 12898
From: Г.Харьков
On Forums: 7 years 5 months
Thanks: 221303 time(s)
Unknown


(IMG:http://metalarea.org/images/audiocovers/2019_Oct/acov_tid328473_thumb.jpg)

*Artist: Valkyrie
*Album: Choosers Of The Slain [ep]
*Year: 2019
*Genre: Thrash Metal
*Country: United States (IMG:http://metalarea.org/forum/style_images/flags/United%20States.png)
*Format: mp3@CBR320kbps
*Size: 39MB

Tracklist:
1. Screams of the Aggressor 03:32
2. Choosers of the Slain 03:48
3. Valkyrie 03:32
4. Reign of Violence 03:49
5. Nightmare 01:41
6. The Henry Waltz 00:33
******************************
Total playing time: 16:55

Preview 1

Extended info
The much anticipated EP from San Antonio thrash-metal pioneers! It includes the three songs from the original 1985 demo, plus three new songs of bonus material, all recorded in 2019.
David Gwaltney Bass
Jon Darnell Drums
Scott Stine Guitars
Joe Gregory Vocals



Technical info
(IMG:http://metalarea.org/images/spectrogram/2019_Oct/c827d1f43be19b8f0ac55fb4c7e8b915.png)
Input File: 04 - Reign of Violence.mp3
Channels : 2
Sample Rate : 44100
Precision : 16-bit
Duration : 00:03:49.21 = 10108205 samples = 17190.8 CDDA sectors
File Size : 9.29M
Bit Rate : 324k
Sample Encoding: MPEG audio (layer I, II or III)
Comments :
Title=Reign of Violence
Artist=Valkyrie
Album=Choosers of the Slain
Tracknumber=4
Year=2019-09-27
Discnumber=1



Register


Go to the top of the page
  Insert nick Quick quote
+Quote Post
 
Start new topic
Replies (1 - 3)
post Oct 8 2019, 09:19:22
Post #2

Dr.
**************
Group: Металариец
Posts: 5,312
Releases: 0
From: Primorye.ru
On Forums: 8 years 6 months
Thanks: 1084 time(s)
Russian Federation


ЦИТАТА
It includes the three songs from the original 1985 demo
may be 1986
item Valkyrie - Chooser Of The Slain [Demo] (1986) (IMG:style_emoticons/default/smile1.gif)


Thanks:
Go to the top of the page
  Insert nick Quick quote
+Quote Post
post Oct 8 2019, 16:02:08
Post #3

Пять Литров
*****
Group: Металариец
Posts: 475
Releases: 102
On Forums: 8 months 3 weeks
Thanks: 1053 time(s)
Canada


QUOTE(Diflock @ Oct 8 2019, 09:19:22) *

Yes, the page for Valkyrie inside the CD booklet for Various ‎– Texas Metal Archives Volume One says they recorded one demo, in 1986.
https://www.discogs.com/Various-Texas-Metal...release/5741446

I do not know why it says 1985 at https://store.cdbaby.com/cd/valkyrie42
but I think the older the bands get, they forget a lot.
For example,
I am amazed that James C. on facebook consistently is wrong about the actual dates when he recorded and released Malhavoc tapes/albums.
Go to the top of the page
  Insert nick Quick quote
+Quote Post
post Oct 10 2019, 13:22:39
Post #4

Правь статус, ####!111
**************
Group: Металариец
Posts: 2,681
Releases: 8
From: Dnipro
On Forums: 11 years 3 months
Thanks: 834 time(s)
Ukraine


Картина с облоги заезжена до безобразия.
Go to the top of the page
  Insert nick Quick quote
+Quote Post

Reply to this topicStart new topic
1 User(s) are reading this topic (1 Guests and 0 Anonymous Users)
0 Members:

 



- Lo-Fi Version Support form
Copyrights and abuse reports form
Time is now: 22nd October 2019 - 07:11:29