Welcome Guest ( Log In | Register )

> Releases Upload / Добавление релизов

Добавить релиз тут / Click here to add release
Рекомендованные обменники / Recommended file shares

 
Reply to this topicStart new topic
> Dead Eyed Sleeper - Gomorrh. (2016), Death Metal
post Oct 8 2019, 00:57:44
Post #1

Правь статус, ####!111
**************
Group: Металариец
Posts: 19,102
Releases: 12898
From: Г.Харьков
On Forums: 7 years 5 months
Thanks: 221300 time(s)
Unknown


(IMG:http://metalarea.org/images/audiocovers/2019_Oct/acov_tid328480_thumb.jpg)

*Artist: Dead Eyed Sleeper
*Album: Gomorrh.
*Year: 2016
*Genre: Death Metal
*Country: Germany (IMG:http://metalarea.org/forum/style_images/flags/Germany.png)
*Format: mp3@CBR320kbps
*Size: 67MB

Tracklist:
1. Menschheit 05:30
2. Der Krieg I 05:23
3. Winterdämmerung 05:12
4. Grodek 06:17
5. Erinnerung 06:12
******************************
Total playing time: 28:34




Extended info
Thomas Amann Bass
Cornelius Althammer Drums
Peter Eifflaender Guitars
Stephan Wandernoth Guitars
Sam Anetzberger Vocals


Technical info
(IMG:http://metalarea.org/images/spectrogram/2019_Oct/bf0f0e51cbcaaab25c248a558cbffdeb.png)
Input File: 03. Winterdämmerung.mp3
Channels : 2
Sample Rate : 44100
Precision : 16-bit
Duration : 00:05:12.63 = 13786851 samples = 23447 CDDA sectors
File Size : 12.8M
Bit Rate : 326k
Sample Encoding: MPEG audio (layer I, II or III)
Comments :
Title=Winterdämmerung
Artist=Dead Eyed Sleeper
Album=Gomorrh. (320)
Tracknumber=03
Year=2016
Genre=Metal



Register


Go to the top of the page
  Insert nick Quick quote
+Quote Post

Reply to this topicStart new topic
1 User(s) are reading this topic (1 Guests and 0 Anonymous Users)
0 Members:

 



- Lo-Fi Version Support form
Copyrights and abuse reports form
Time is now: 22nd October 2019 - 06:42:02