Welcome Guest ( Log In | Register )

> Releases Upload / Добавление релизов

Добавить релиз тут / Click here to add release
Рекомендованные обменники / Recommended file shares

 
Reply to this topicStart new topic
> Musica Diablo - Musica Diablo [demo] (2009), Thrash Metal
post Oct 8 2019, 06:33:10
Post #1

Маньяк
**********
Group: Металариец
Posts: 1,207
Releases: 91
On Forums: 6 years 4 days
Thanks: 2450 time(s)
Unknown


(IMG:http://metalarea.org/images/audiocovers/2019_Oct/acov_tid328484_thumb.jpg)

*Artist: Musica Diablo
*Album: Musica Diablo [demo]
*Year: 2009
*Genre: Thrash Metal
*Country: Brazil (IMG:http://metalarea.org/forum/style_images/flags/Brazil.png)
*Format: mp3@CBR256kbps
*Size: 22MB

Tracklist:
01. Work Out 03:01
02. The Flame Of Anger 03:02
03. Live To Buy 02:38
04. Twisted Hate 02:58
05. The Rack 02:03
******************************
Total playing time: 13:42

Extended info
Thanks to Asgarddistro!


Technical info
(IMG:http://metalarea.org/images/spectrogram/2019_Oct/49e1fd6a444b9864cc28767e8ac3d49c.png)
Input File: 1 Work Out.mp3
Channels : 2
Sample Rate : 44100
Precision : 16-bit
Duration : 00:03:01.20 = 7990788 samples = 13589.8 CDDA sectors
File Size : 5.92M
Bit Rate : 261k
Sample Encoding: MPEG audio (layer I, II or III)
Comments :
Title=Work Out
Artist=Musica Diablo
Album=Demo
Tracknumber=1
Year=2009
Genre=Thrash Metal



Register


Go to the top of the page
  Insert nick Quick quote
+Quote Post

Reply to this topicStart new topic
1 User(s) are reading this topic (1 Guests and 0 Anonymous Users)
0 Members:

 



- Lo-Fi Version Support form
Copyrights and abuse reports form
Time is now: 22nd October 2019 - 06:47:34