Welcome Guest ( Log In | Register )

 
Reply to this topicStart new topic
> Overture - Fallen Empire (1997), Death Metal
post Oct 8 2019, 13:14:39
Post #1

Подвал
**************
Group: Металариец
Posts: 13,662
Releases: 7743
From: Far East (Khabarovsk)
On Forums: 10 years 8 months
Thanks: 75147 time(s)
Russian Federation


(IMG:http://metalarea.org/images/audiocovers/2019_Oct/acov_tid328492_thumb.jpg)

*Artist: Overture
*Album: Fallen Empire
*Year: 1997
*Genre: Death Metal
*Country: United States (IMG:http://metalarea.org/forum/style_images/flags/United%20States.png)
*Format: mp3@CBR192kbps
*Size: 75MB

Tracklist:
1. Cycles Of Blood 04:17
2. Purity 06:45
3. The Angels Decend 04:31
4. Chapter 1: Retribution 02:24
5. Martyr 05:32
6. The End Unto Those Mortal 06:00
7. Sacrifice 02:31
8. Chapter II: Deliverence 01:37
9. Revel In Darkness 04:48
10. Purgatory 05:35
11. Fallen Empire II 05:02
12. Chapter III: Ingestion 06:46
******************************
Total playing time: 55:48

(IMG:http://metalarea.org/images/myspace.png)

Extended info
Band from Olathe, Kansas.


Technical info
(IMG:http://metalarea.org/images/spectrogram/2019_Oct/cb04b67964be36bea5a9bf6995e62f00.png)
Input File: 01-Cycles of Blood.mp3
Channels : 2
Sample Rate : 44100
Precision : 16-bit
Duration : 00:04:17.66 = 11362718 samples = 19324.4 CDDA sectors
File Size : 6.18M
Bit Rate : 192k
Sample Encoding: MPEG audio (layer I, II or III)
Comments :
Title=Cycles of Blood
Artist=Overture (US, KS)
Album=Fallen Empire
Tracknumber=01
Year=1997
Genre=Death Metal



Register


Go to the top of the page
  Insert nick Quick quote
+Quote Post

Reply to this topicStart new topic
1 User(s) are reading this topic (1 Guests and 0 Anonymous Users)
0 Members:

 



- Lo-Fi Version Support form
Copyrights and abuse reports form
Time is now: 22nd October 2019 - 06:53:55