Welcome Guest ( Log In | Register )

 
Reply to this topicStart new topic
> Sepsis - To Make Rotten [demo] (1991), Death Metal
post Oct 8 2019, 13:29:03
Post #1

Подвал
**************
Group: Металариец
Posts: 13,662
Releases: 7743
From: Far East (Khabarovsk)
On Forums: 10 years 8 months
Thanks: 75147 time(s)
Russian Federation


(IMG:http://metalarea.org/images/audiocovers/2019_Oct/acov_tid328494_thumb.jpg)

*Artist: Sepsis
*Album: To Make Rotten [demo]
*Year: 1991
*Genre: Death Metal
*Country: United States (IMG:http://metalarea.org/forum/style_images/flags/United%20States.png)
*Format: mp3@CBR192kbps
*Size: 38MB

Tracklist:
1. Spewing Innards 03:33
2. Necro Introvert Pesticide Injector 03:50
3. Fistula Bleeds 04:33
4. Foetal Embolism 01:29
5. Winter Of Despair 01:49
6. It's Too Late 03:18
7. Pain Hotel 02:37
8. Nustage 02:18
9. Fear Of What Is 03:57
******************************
Total playing time: 27:24



Extended info
Band from Eugene, Oregon.
Recorded on September 23rd and 24th, 1991 at Michael Cooper Studios, Eugene, Oregon.


Technical info
(IMG:http://metalarea.org/images/spectrogram/2019_Oct/0d7de508cb9330fe7520b76554266459.png)
Input File: 01-Spewing Innards.mp3
Channels : 2
Sample Rate : 44100
Precision : 16-bit
Duration : 00:03:29.07 = 9219943 samples = 15680.2 CDDA sectors
File Size : 5.02M
Bit Rate : 192k
Sample Encoding: MPEG audio (layer I, II or III)
Comments :
Title=Spewing Innards
Artist=Sepsis (US, OR)
Album=To Make Rotten (Demo)
Tracknumber=01
Year=1991
Genre=Death Metal



Register


Go to the top of the page
  Insert nick Quick quote
+Quote Post

Reply to this topicStart new topic
1 User(s) are reading this topic (1 Guests and 0 Anonymous Users)
0 Members:

 



- Lo-Fi Version Support form
Copyrights and abuse reports form
Time is now: 22nd October 2019 - 07:03:14