Welcome Guest ( Log In | Register )

> Releases Upload / Добавление релизов

Добавить релиз тут / Click here to add release
Рекомендованные обменники / Recommended file shares

> The Howling Void & Nyss - Ravens Of The Burning God [split] (2018), Atmospheric Doom Metal | Experimental Black Metal
post Oct 8 2019, 15:18:41
Post #1

...
**************
Group: Металариец
Posts: 3,353
Releases: 1425
From: МЕЩЁРА
On Forums: 11 years 6 months
Thanks: 40637 time(s)
Russian Federation


(IMG:http://metalarea.org/images/audiocovers/2019_Oct/acov_tid328495_thumb.jpg)

*Artist: The Howling Void & Nyss
*Album: Ravens Of The Burning God [split]
*Year: 2018
*Genre: Atmospheric Doom Metal | Experimental Black Metal
*Country: United States (IMG:http://metalarea.org/forum/style_images/flags/United%20States.png) | France (IMG:http://metalarea.org/forum/style_images/flags/France.png)
*Format: mp3@CBR320kbps
*Size: 83MB

Tracklist:
The Howling Void:
1. Darkness In The Daylight 13:06
Nyss:
2. I Am The Light Of The World 07:20
3. We Are Sigils 10:29
******************************
Total playing time: 30:55





Extended info
+ Scans.

Limited to 300 copies in a 6-panel Digipak. (Avantgarde Music)



Technical info
(IMG:http://metalarea.org/images/spectrogram/2019_Oct/536e516386d780dced9d9f3d4261fbf8.png)
Input File: 1. Darkness In The Daylight.mp3
Channels : 2
Sample Rate : 44100
Precision : 16-bit
Duration : 00:13:07.06 = 34709478 samples = 59029.7 CDDA sectors
File Size : 31.5M
Bit Rate : 320k
Sample Encoding: MPEG audio (layer I, II or III)
Comments :
Title=Darkness In The Daylight
Artist=The Howling Void
Album=Ravens Of The Burning God
Tracknumber=1
Year=2018
Genre=Doom Metal



Register


Go to the top of the page
  Insert nick Quick quote
+Quote Post
 
Start new topic
Replies (1 - 6)
post Oct 9 2019, 03:51:22
Post #2

Group: Подсевший
Posts: 20
Releases: 1
On Forums: 6 years 3 weeks
Thanks: 9 time(s)
Unknown


Пытаюсь распаковать, пишет: "Архив повреждён или имеет неизвестный формат"
Go to the top of the page
  Insert nick Quick quote
+Quote Post
post Oct 9 2019, 08:30:26
Post #3

Литр
*
Group: Подсевший
Posts: 88
Releases: 0
On Forums: 2 years 5 months
Thanks: 56 time(s)
Zimbabwe


ЦИТАТА(nyktalgin @ Oct 9 2019, 06:51:22) *
Пытаюсь распаковать, пишет: "Архив повреждён или имеет неизвестный формат"

winrar vers. 5


Thanks:
Go to the top of the page
  Insert nick Quick quote
+Quote Post
post Oct 9 2019, 17:53:45
Post #4

Group: Дух
Posts: 6
Releases: 0
On Forums: 1 year 7 months
Thanks: 0 time(s)
Russian Federation


ЦИТАТА(nyktalgin @ Oct 9 2019, 07:51:22) *
Пытаюсь распаковать, пишет: "Архив повреждён или имеет неизвестный формат"



попробуй распаковать через 7-zip
Go to the top of the page
  Insert nick Quick quote
+Quote Post
post Oct 15 2019, 18:28:14
Post #5

Шесть Литров
******
Group: Металариец
Posts: 667
Releases: 10
On Forums: 10 years 9 months
Thanks: 162 time(s)
Germany


please, re-upload.
Go to the top of the page
  Insert nick Quick quote
+Quote Post
post Oct 15 2019, 18:41:15
Post #6

...
**************
Group: Металариец
Posts: 3,353
Releases: 1425
From: МЕЩЁРА
On Forums: 11 years 6 months
Thanks: 40637 time(s)
Russian Federation


Register


Thanks:
Go to the top of the page
  Insert nick Quick quote
+Quote Post
post Oct 16 2019, 12:59:03
Post #7

Group: Подсевший
Posts: 10
Releases: 0
On Forums: 12 years 5 months
Thanks: 1 time(s)
Afghanistan


Как-то не понял я концепцию, объединившую эти два проекта
Go to the top of the page
  Insert nick Quick quote
+Quote Post

Reply to this topicStart new topic
1 User(s) are reading this topic (1 Guests and 0 Anonymous Users)
0 Members:

 



- Lo-Fi Version Support form
Copyrights and abuse reports form
Time is now: 22nd October 2019 - 07:57:00