Welcome Guest ( Log In | Register )

> Releases Upload / Добавление релизов

Добавить релиз тут / Click here to add release
Рекомендованные обменники / Recommended file shares

> Maze Of Terror - Death Worshipers [demo] (2019), Old School Thrash Metal
post Oct 8 2019, 16:25:54
Post #1

Правь статус, ####!111
**************
Group: Металариец
Posts: 19,102
Releases: 12898
From: Г.Харьков
On Forums: 7 years 5 months
Thanks: 221307 time(s)
Unknown


(IMG:http://metalarea.org/images/audiocovers/2019_Oct/acov_tid328498_thumb.jpg)

*Artist: Maze Of Terror
*Album: Death Worshipers [demo]
*Year: 2019
*Genre: Old School Thrash Metal
*Country: Peru (IMG:http://metalarea.org/forum/style_images/flags/Peru.png)
*Format: mp3@CBR320kbps
*Size: 26MB

Tracklist:
1. Incubus 03:39
2. Force of Hell 04:04
3. Death Worshipers 01:05
4. Kill the Cop 02:17
******************************
Total playing time: 11:05




Extended info
Leviathan Bass, Vocals (2011-present)
See also: ex-R.I.P.
Hammer Drums (2011-present)
See also: Goat Semen, ex-R.I.P.
Criminal Mind Guitars (2012-present)
Razor Guitars (2014-present)
See also: ex-Morvidhen, ex-Sordid



Technical info
(IMG:http://metalarea.org/images/spectrogram/2019_Oct/7c84a74e5c87b7409c0d711470a3d92d.png)
Input File: 02 - Force of Hell.mp3
Channels : 2
Sample Rate : 44100
Precision : 16-bit
Duration : 00:04:04.65 = 10789065 samples = 18348.8 CDDA sectors
File Size : 9.90M
Bit Rate : 324k
Sample Encoding: MPEG audio (layer I, II or III)
Comments :
Title=Force of Hell
Artist=Maze of Terror
Album=Death Worshipers
Tracknumber=2
Year=2019-09-29
Discnumber=1



Register


Go to the top of the page
  Insert nick Quick quote
+Quote Post
 
Start new topic
Replies (1 - 3)
post Oct 9 2019, 05:40:14
Post #2

Grind the Human Scum
*********
Group: Металариец
Posts: 958
Releases: 18
On Forums: 12 years 9 months
Thanks: 898 time(s)
Russian Federation


Отличный трэшметал, перуанцы, как всегда, радуют \M/


Go to the top of the page
  Insert nick Quick quote
+Quote Post
post Oct 9 2019, 09:25:00
Post #3

Шесть Литров
******
Group: Металариец
Posts: 630
Releases: 0
From: South Of Heaven
On Forums: 12 years 2 months
Thanks: 282 time(s)
Ukraine


Хорошо зашло, бодрячком. (IMG:style_emoticons/default/metaler.gif) Потенциал есть.
Релизёру (IMG:style_emoticons/default/9.gif)


Go to the top of the page
  Insert nick Quick quote
+Quote Post
post Oct 20 2019, 12:53:05
Post #4

Сектант технодро4чер
**************
Group: Металариец
Posts: 5,490
Releases: 143
From: Тимчасово окупована територія
On Forums: 11 years 2 months
Thanks: 5713 time(s)
Ukraine


Плюсую отписавшимся выше: отличный материалЪ.
Go to the top of the page
  Insert nick Quick quote
+Quote Post

Reply to this topicStart new topic
1 User(s) are reading this topic (1 Guests and 0 Anonymous Users)
0 Members:

 



- Lo-Fi Version Support form
Copyrights and abuse reports form
Time is now: 22nd October 2019 - 07:22:30