Welcome Guest ( Log In | Register )

> И неформату есть предел.

Рэп/хип-хоп/шансон/поп удаляются. Для них есть свои порталы.

> The Birthday Party - Junkyard (1982), Post-Punk
post Oct 8 2019, 17:03:06
Post #1

Враг Газпрома
**************
Group: Металариец
Posts: 6,054
Releases: 0
On Forums: 10 years 4 months
Thanks: 2230 time(s)
Russian Federation


(IMG:http://metalarea.org/images/audiocovers/2019_Oct/acov_tid328499_thumb.jpeg)

*Artist: The Birthday Party
*Album: Junkyard
*Year: 1982
*Genre: Post-Punk
*Country: Australia (IMG:http://metalarea.org/forum/style_images/flags/Australia.png)
*Format: mp3@CBR320kbps
*Size: 107MB

Tracklist:
01 - Blast Off
02 - She's Hit
03 - Dead Joe
04 - The Dim Locator
05 - Hamlet (Pow, Pow, Pow)
06 - Several Sins
07 - Big-Jesus-Trash-Can
08 - Kiss Me Black
09 - 6 Gold Blade
10 - Kewpie Doll
11 - Junkyard
12 - Dead Joe (2nd version)
13 - Release the Bats
******************************
Total playing time: 48:10

Technical info
(IMG:http://metalarea.org/images/spectrogram/2019_Oct/4f2b494f4fbd41bea17a72bb3cfa5af9.png)
Input File: 01 - Blast Off.mp3
Channels : 2
Sample Rate : 44100
Precision : 16-bit
Duration : 00:02:23.02 = 6306962 samples = 10726.1 CDDA sectors
File Size : 5.89M
Bit Rate : 330k
Sample Encoding: MPEG audio (layer I, II or III)
Comments :
Title=Blast Off
Artist=The Birthday Party
Album=Junkyard
Tracknumber=1
Year=1982
Genre=Post Punk



Register


Thanks:
Go to the top of the page
  Insert nick Quick quote
+Quote Post
 
Start new topic
Replies (1 - 2)
post Oct 10 2019, 11:30:51
Post #2

Мегаманьяк
***********
Group: Металариец
Posts: 1,608
Releases: 0
From: Харьков
On Forums: 10 years 3 weeks
Thanks: 639 time(s)
Ukraine


Обложки у них тогда были, конечно (IMG:style_emoticons/default/1488.gif)


Thanks:
Go to the top of the page
  Insert nick Quick quote
+Quote Post
post Oct 14 2019, 16:50:12
Post #3

Враг Газпрома
**************
Group: Металариец
Posts: 6,054
Releases: 0
On Forums: 10 years 4 months
Thanks: 2230 time(s)
Russian Federation


ЦИТАТА(Ghostb @ Oct 10 2019, 13:30:51) *
Обложки у них тогда были, конечно (IMG:style_emoticons/default/1488.gif)

Это точно! Не то, что потом "пасхальные открытки" на альбомах Bad Seeds.
Register
Go to the top of the page
  Insert nick Quick quote
+Quote Post

Reply to this topicStart new topic
1 User(s) are reading this topic (1 Guests and 0 Anonymous Users)
0 Members:

 



- Lo-Fi Version Support form
Copyrights and abuse reports form
Time is now: 22nd October 2019 - 06:42:48