Welcome Guest ( Log In | Register )

> The Ferrymen - A New Evil (2019), Melodic Heavy/Power Metal
post Oct 8 2019, 17:09:21
Post #1

Правь статус, ####!111
**************
Group: Металариец
Posts: 20,645
Releases: 14092
From: Г.Харьков
On Forums: 7 years 9 months
Thanks: 248589 time(s)
Unknown


(IMG:http://metalarea.org/images/audiocovers/2019_Oct/acov_tid328500_thumb.jpg)

*Artist: The Ferrymen
*Album: A New Evil
*Year: 2019
*Genre: Melodic Heavy/Power Metal
*Country: International (IMG:http://metalarea.org/forum/style_images/flags/International.png)
*Format: mp3@CBR320kbps
*Size: 138MB

Tracklist:
01. Don't Stand In My Way
02. Bring Me Home
03. A New Evil
04. The Night People Rise
05. Save Your Prayers
06. Heartbeat
07. Your Own Hero
08. No Matter How Hard We Fall
09. My Dearest Fear
10. You Against The World
11. All We Got
12. Bring Me Home (Acoustic Version) [Japan Bonus Track]
******************************
Total playing time: 56:50



Extended info
Spain / United States / Sweden [Japanese Edition]
Mike Terrana Drums
See also: Avalanch, Empire, Kreyson, Razorback, Vision Divine, Zillion, Roland Grapow, ex-Hanover, ex-Zillion, Beau Nasty, Taboo Voodoo, Terrana, ex-Artension, ex-Axel Rudi Pell, ex-Downhell, ex-Emir Hot, ex-Masterplan, ex-Not Fragile, ex-Rage, ex-Squealer, ex-Tarja, ex-Tony MacAlpine, ex-Yngwie J. Malmsteen, ex-Gamma Ray (live), ex-Iron Mask (live), ex-Damir Simic Shime, ex-John West, ex-Metalium, ex-Savage Circus, ex-Tony Hernando (live), ex-Hardline, ex-Mike Terrana
Magnus Karlsson Guitars, Bass, Keyboards
See also: Kiske / Somerville, Magnus Karlsson's Free Fall, Primal Fear, The Codex, Planet Alliance, ex-Last Tribe, ex-Midnight Sun, Starbreaker, ex-Allen - Lande, ex-Bob Catley, ex-Scheepers (live)
Ronnie Romero Vocals
See also: Rainbow, Walter Giardino Temple, Eridan (live), ex-Aria Inferno, ex-Lords of Black, ex-Jose Rubio's Nova Era, ex-Santelmo, ex-Voces del Rock



Technical info
(IMG:http://metalarea.org/images/spectrogram/2019_Oct/ded2398adb96ffad7986af4885b60ba5.png)
Input File: 05. SAVE YOUR PRAYERS.mp3
Channels : 2
Sample Rate : 44100
Precision : 16-bit
Duration : 00:05:14.90 = 13887090 samples = 23617.5 CDDA sectors
File Size : 13.3M
Bit Rate : 337k
Sample Encoding: MPEG audio (layer I, II or III)
Comments :
Title=SAVE YOUR PRAYERS
Artist=THE FERRY MEN
Album=A NEW EVIL
Tracknumber=5/12
Year=2019
Discnumber=1/1



Register


Go to the top of the page
  Insert nick Quick quote
+Quote Post
 
Start new topic
Replies (1 - 7)
post Oct 8 2019, 19:49:41
Post #2

Правь статус, ####!111
**************
Group: Металариец
Posts: 20,645
Releases: 14092
From: Г.Харьков
On Forums: 7 years 9 months
Thanks: 248589 time(s)
Unknown


Cloud Mail 320
Register



Go to the top of the page
  Insert nick Quick quote
+Quote Post
post Oct 8 2019, 21:21:09
Post #3

Тридцать лет на борту "Тяжёлого" крейсера
**************
Group: Металариец
Posts: 2,168
Releases: 0
From: Питер
On Forums: 12 years 8 months
Thanks: 573 time(s)
Russian Federation


Нормально так стариканы выдали, бодрячком, нафталин, конечно, из всех щелей, но довольно приятная пластинка.
Местами даже несколько модерново. Проходных вещей не обнаружил


Go to the top of the page
  Insert nick Quick quote
+Quote Post
post Oct 11 2019, 08:21:44
Post #4

Четыре Литра
****
Group: Металариец
Posts: 315
Releases: 0
From: Ташкент
On Forums: 12 years 2 weeks
Thanks: 90 time(s)
Uzbekistan


Получше, чем дебютник, посвежее.


Thanks:
(1) Mplast,
Go to the top of the page
  Insert nick Quick quote
+Quote Post
post Oct 18 2019, 09:10:30
Post #5

Пять Литров
*****
Group: Металариец
Posts: 470
Releases: 0
From: Нижний Новгород
On Forums: 13 years 6 months
Thanks: 183 time(s)
Russian Federation


А я не назову это нафталином. Метал не стареет ... он лишь иногда ржавеет. (IMG:style_emoticons/default/smile1.gif)
Ромеро как индикатор - в плохих проектах не участвует.
Альбом сделан с большим вкусом и профессионализмом в совершенно классическом исполнении. Хоть штапмы эталона проставляй ...


Thanks:
(1) Mplast,
Go to the top of the page
  Insert nick Quick quote
+Quote Post
post Nov 1 2019, 19:09:34
Post #6

Правь статус, ####!111
**************
Group: Металариец
Posts: 2,087
Releases: 0
From: Мытищи
On Forums: 11 years 11 months
Thanks: 1222 time(s)
Russian Federation


Согласен со всеми выше, у каждого в комментах нашел часть своего впечатления от альбома:
- Проходных вещей не обнаружил (Сэдмэннн)
- Получше, чем дебютник, посвежее (JPV)
- Метал не стареет... Альбом сделан с большим вкусом и профессионализмом в совершенно классическом исполнении (Террорайзер)
Лично для меня это такой грамотный металлический поп, который я вместе с женой в машине могу слушать, или покайфовать на даче занимаясь своими делами, чтобы соседи не возбухали)
Go to the top of the page
  Insert nick Quick quote
+Quote Post
post Nov 1 2019, 19:13:52
Post #7

Волк без яблока
**************
Group: Металариец
Posts: 13,437
Releases: 108
From: Санкт-Петербург
On Forums: 13 years 4 months
Thanks: 15454 time(s)
Russian Federation


ЦИТАТА(Mplast @ 1st November 2019 - 21:09:34) *
Лично для меня это такой грамотный металлический поп

Практически описание всего ассортимента Frontiers.
Go to the top of the page
  Insert nick Quick quote
+Quote Post
post Nov 24 2019, 15:32:56
Post #8

Ъ
**************
Group: Металариец
Posts: 9,921
Releases: 9
On Forums: 11 years 1 month
Thanks: 1966 time(s)
Sweden


Жаль хитов нет, так то вокалист и музыканты - могут, а так на пару раз послушать.


Thanks:
(1) MeatWolf,
Go to the top of the page
  Insert nick Quick quote
+Quote Post

Reply to this topicStart new topic
2 User(s) are reading this topic (2 Guests and 0 Anonymous Users)
0 Members:

 



- Lo-Fi Version Support form
Copyrights and abuse reports form
Time is now: 21st February 2020 - 04:30:00