Welcome Guest ( Log In | Register )

> Releases Upload / Добавление релизов

Добавить релиз тут / Click here to add release
Рекомендованные обменники / Recommended file shares

> Mammuten - Prophet Of Disaster (2019), Psychedelic Stoner Rock/Doom Metal
post Oct 8 2019, 18:51:09
Post #1

Правь статус, ####!111
**************
Group: Металариец
Posts: 43,424
Releases: 657
On Forums: 10 years 4 months
Thanks: 34496 time(s)
Russian Federation


(IMG:http://metalarea.org/images/audiocovers/2019_Oct/acov_tid328501_thumb.jpg)

*Artist: Mammuten
*Album: Prophet Of Disaster
*Year: 2019
*Genre: Psychedelic Stoner Rock/Doom Metal
*Country: Greece (IMG:http://metalarea.org/forum/style_images/flags/Greece.png)
*Format: mp3@CBR320kbps
*Size: 127MB

Tracklist:
1. Augury: Premonition Pt. 1 09:18
2. The Hex: Premonition Pt. 2 15:19
3. Disenchantment 05:36
4. The Vacillant 09:43
5. The Redeemer 07:12
6. Refuge Of Impiety 06:31
******************************
Total playing time: 53:39



Technical info
(IMG:http://metalarea.org/images/spectrogram/2019_Oct/2d1318703d69e76134342b275ef45a0c.png)
Input File: 01. Augury- Premonition, Pt. 1.mp3
Channels : 2
Sample Rate : 44100
Precision : 16-bit
Duration : 00:09:18.87 = 24646211 samples = 41915.3 CDDA sectors
File Size : 23.1M
Bit Rate : 330k
Sample Encoding: MPEG audio (layer I, II or III)
Comments :
Title=Augury: Premonition, Pt. 1
Artist=Mammuten
Album=Prophet of Disaster
Tracknumber=1/6
Year=2019
Genre=Alternative
Discnumber=1/1



Register


This post has been edited by Borderline1991: Oct 9 2019, 08:02:50


Go to the top of the page
  Insert nick Quick quote
+Quote Post
 
Start new topic
Replies (1 - 1)
post Oct 9 2019, 07:51:27
Post #2

Правь статус, ####!111
**************
Group: Металариец
Posts: 43,424
Releases: 657
On Forums: 10 years 4 months
Thanks: 34496 time(s)
Russian Federation


Фимейл вокал. Андрюша Кручинин, обрати особое внимание! (IMG:style_emoticons/default/smile3.gif)
Go to the top of the page
  Insert nick Quick quote
+Quote Post

Reply to this topicStart new topic
1 User(s) are reading this topic (1 Guests and 0 Anonymous Users)
0 Members:

 



- Lo-Fi Version Support form
Copyrights and abuse reports form
Time is now: 22nd October 2019 - 07:02:57