Welcome Guest ( Log In | Register )

> Releases Upload / Добавление релизов

Добавить релиз тут / Click here to add release
Рекомендованные обменники / Recommended file shares

> Venomous - The Black Embrace (2019), Melodic Death Metal
post Oct 8 2019, 19:48:10
Post #1

Правь статус, ####!111
**************
Group: Металариец
Posts: 19,102
Releases: 12898
From: Г.Харьков
On Forums: 7 years 5 months
Thanks: 221300 time(s)
Unknown


(IMG:http://metalarea.org/images/audiocovers/2019_Oct/acov_tid328504_thumb.jpg)

*Artist: Venomous
*Album: The Black Embrace
*Year: 2019
*Genre: Melodic Death Metal
*Country: Brazil (IMG:http://metalarea.org/forum/style_images/flags/Brazil.png)
*Format: mp3@CBR320kbps
*Size: 91MB

Tracklist:
01. The Orchard 00:48
02. Event Horizon 03:31
03. Penitence 03:49
04. Duality 05:01
05. Heirs of a Dream 05:53
06. Zumbi 04:54
07. Black Embrace 05:36
08. Rise 06:37
09. Redemption 06:41
******************************
Total playing time: 42:50



Extended info
Alexandre Bonal Bass
Lucas Prado Drums
See also: Jugger
Ivan Landgraf Guitars
Gui Calegari Guitars
Thiago Pereira Vocals
See also: ex-Sangria


Technical info
(IMG:http://metalarea.org/images/spectrogram/2019_Oct/312d4f68fe63c66de6d94615583f3784.png)
Input File: 04. Duality.mp3
Channels : 2
Sample Rate : 44100
Precision : 16-bit
Duration : 00:05:01.34 = 13289182 samples = 22600.6 CDDA sectors
File Size : 12.1M
Bit Rate : 322k
Sample Encoding: MPEG audio (layer I, II or III)
Comments :
Title=Duality
Artist=Venomous
Album=The Black Embrace
Tracknumber=4/9
Year=2019
Genre=9
Discnumber=1/1



Register

Register


Go to the top of the page
  Insert nick Quick quote
+Quote Post
 
Start new topic
Replies (1 - 2)
post Oct 9 2019, 01:47:03
Post #2

\m/
Group Icon
Group: S-moderation team
Posts: 7,690
Releases: 19
From: Петропавловск-Камчатский
On Forums: 10 years 4 months
Thanks: 7242 time(s)
Russian Federation


Added links by Andrew
Go to the top of the page
  Insert nick Quick quote
+Quote Post
post Oct 9 2019, 09:03:35
Post #3

MDM-Thrash Metal
**************
Group: Металариец
Posts: 8,902
Releases: 684
From: Одесса
On Forums: 12 years 2 months
Thanks: 18898 time(s)
Ukraine


- Предыдущий альбом


Thanks:
(1) Megaden,
Go to the top of the page
  Insert nick Quick quote
+Quote Post

Reply to this topicStart new topic
1 User(s) are reading this topic (1 Guests and 0 Anonymous Users)
0 Members:

 



- Lo-Fi Version Support form
Copyrights and abuse reports form
Time is now: 22nd October 2019 - 06:42:16