Welcome Guest ( Log In | Register )

> Funeral Of Souls - Requiem (2019), Gothic/Doom Metal
post Oct 8 2019, 20:18:39
Post #1

Правь статус, ####!111
**************
Group: Металариец
Posts: 21,938
Releases: 15137
From: Г.Харьков
On Forums: 8 years 3 weeks
Thanks: 274752 time(s)
Unknown


(IMG:http://metalarea.org/images/audiocovers/2019_Oct/acov_tid328506_thumb.jpg)

*Artist: Funeral Of Souls
*Album: Requiem
*Year: 2019
*Genre: Gothic/Doom Metal
*Country: Argentina (IMG:http://metalarea.org/forum/style_images/flags/Argentina.png)
*Format: mp3@CBR320kbps
*Size: 77MB

Tracklist:
1. Battle of Gods 04:05
2. Leyenda urbana 04:03
3. Sunset 03:07
4. Requiem 04:21
5. Evil 01:12
6. La caída 03:45
7. Beauty 03:04
8. Wish 05:22
9. Lost Soul 00:27
10. Enter the Dark 03:56
******************************
Total playing time: 33:22



Extended info
Gona Lugosi Drums
Luis Panteon Guitars
Selva Anzorena Vocals (soprano)


Technical info
(IMG:http://metalarea.org/images/spectrogram/2019_Oct/0aff515a32a11cfcbe44269cd631e90f.png)
Input File: 04 - Requiem.mp3
Channels : 2
Sample Rate : 44100
Precision : 16-bit
Duration : 00:04:21.71 = 11541367 samples = 19628.2 CDDA sectors
File Size : 10.6M
Bit Rate : 323k
Sample Encoding: MPEG audio (layer I, II or III)
Comments :
Title=Requiem
Artist=Funeral of Souls
Album=Requiem
Tracknumber=4
Year=2019-10-04
Genre=Metal
Discnumber=1



Register


Go to the top of the page
  Insert nick Quick quote
+Quote Post
 
Start new topic
Replies (1 - 2)
post Oct 9 2019, 07:58:01
Post #2

MDM-Thrash Metal
**************
Group: Металариец
Posts: 9,536
Releases: 865
From: Одесса
On Forums: 12 years 9 months
Thanks: 22681 time(s)
Ukraine


- preview of All 10 Tracks
Go to the top of the page
  Insert nick Quick quote
+Quote Post
post Dec 15 2019, 09:53:38
Post #3

Шесть Литров
******
Group: Металариец
Posts: 606
Releases: 5
From: Ивантеевка, Московская область
On Forums: 12 years 5 months
Thanks: 219 time(s)
Russian Federation


Вот в плане музыки всё относительно неплохо (ну более-менее). Да и дядька здорово рычит. Но вот девочка - это просто звиздец... Когда не пытается высоко петь, то терпеть вполне можно. А вот если затянет..., то хочется прямо аки песик какой-нибудь сесть, задрать голову и затянуть: Уууууууууууууууууууууу!
Go to the top of the page
  Insert nick Quick quote
+Quote Post

Reply to this topicStart new topic
1 User(s) are reading this topic (1 Guests and 0 Anonymous Users)
0 Members:

 



- Lo-Fi Version Support form
Copyrights and abuse reports form
Time is now: 4th June 2020 - 05:03:22