Welcome Guest ( Log In | Register )

> Releases Upload / Добавление релизов

Добавить релиз тут / Click here to add release
Рекомендованные обменники / Recommended file shares

> Funeral Of Souls - Requiem (2019), Gothic/Doom Metal
post Oct 8 2019, 20:18:39
Post #1

Правь статус, ####!111
**************
Group: Металариец
Posts: 19,102
Releases: 12898
From: Г.Харьков
On Forums: 7 years 5 months
Thanks: 221300 time(s)
Unknown


(IMG:http://metalarea.org/images/audiocovers/2019_Oct/acov_tid328506_thumb.jpg)

*Artist: Funeral Of Souls
*Album: Requiem
*Year: 2019
*Genre: Gothic/Doom Metal
*Country: Argentina (IMG:http://metalarea.org/forum/style_images/flags/Argentina.png)
*Format: mp3@CBR320kbps
*Size: 77MB

Tracklist:
1. Battle of Gods 04:05
2. Leyenda urbana 04:03
3. Sunset 03:07
4. Requiem 04:21
5. Evil 01:12
6. La caída 03:45
7. Beauty 03:04
8. Wish 05:22
9. Lost Soul 00:27
10. Enter the Dark 03:56
******************************
Total playing time: 33:22



Extended info
Gona Lugosi Drums
Luis Panteon Guitars
Selva Anzorena Vocals (soprano)


Technical info
(IMG:http://metalarea.org/images/spectrogram/2019_Oct/0aff515a32a11cfcbe44269cd631e90f.png)
Input File: 04 - Requiem.mp3
Channels : 2
Sample Rate : 44100
Precision : 16-bit
Duration : 00:04:21.71 = 11541367 samples = 19628.2 CDDA sectors
File Size : 10.6M
Bit Rate : 323k
Sample Encoding: MPEG audio (layer I, II or III)
Comments :
Title=Requiem
Artist=Funeral of Souls
Album=Requiem
Tracknumber=4
Year=2019-10-04
Genre=Metal
Discnumber=1



Register


Go to the top of the page
  Insert nick Quick quote
+Quote Post
 
Start new topic
Replies (1 - 1)
post Oct 9 2019, 07:58:01
Post #2

MDM-Thrash Metal
**************
Group: Металариец
Posts: 8,902
Releases: 684
From: Одесса
On Forums: 12 years 2 months
Thanks: 18898 time(s)
Ukraine


- preview of All 10 Tracks
Go to the top of the page
  Insert nick Quick quote
+Quote Post

Reply to this topicStart new topic
1 User(s) are reading this topic (1 Guests and 0 Anonymous Users)
0 Members:

 



- Lo-Fi Version Support form
Copyrights and abuse reports form
Time is now: 22nd October 2019 - 06:42:45