Welcome Guest ( Log In | Register )

> Releases Upload / Добавление релизов

Добавить релиз тут / Click here to add release
Рекомендованные обменники / Recommended file shares

> Forsaking Fate - Forsaking Fate [ep] (2019), Melodic Death Metal
post Oct 8 2019, 21:25:33
Post #1

Правь статус, ####!111
**************
Group: Металариец
Posts: 19,102
Releases: 12898
From: Г.Харьков
On Forums: 7 years 5 months
Thanks: 221312 time(s)
Unknown


(IMG:http://metalarea.org/images/audiocovers/2019_Oct/acov_tid328507_thumb.jpg)

*Artist: Forsaking Fate
*Album: Forsaking Fate [ep]
*Year: 2019
*Genre: Melodic Death Metal
*Country: South Africa (IMG:http://metalarea.org/forum/style_images/flags/South%20Africa.png)
*Format: mp3@CBR320kbps
*Size: 41MB

Tracklist:
01. Prologue
02. Illusions
03. The End of Existence
04. Retribution
05. Souls of Demolition
******************************
Total playing time: 19:07




Extended info
Grant Hensburg - Guitar/Vocals
Rory Townes - Drums
Edd van Wyk - Bass


Technical info
(IMG:http://metalarea.org/images/spectrogram/2019_Oct/d0d59769c1789f6dca73866b0e84b5d9.png)
Input File: 03. The End of Existence.mp3
Channels : 2
Sample Rate : 44100
Precision : 16-bit
Duration : 00:04:32.87 = 12033435 samples = 20465 CDDA sectors
File Size : 11.1M
Bit Rate : 324k
Sample Encoding: MPEG audio (layer I, II or III)
Comments :
Title=The End of Existence
Artist=Forsaking Fate
Album=Forsaking Fate
Tracknumber=3/5
Year=2019
Genre=9
Discnumber=1/1



Register


Go to the top of the page
  Insert nick Quick quote
+Quote Post
 
Start new topic
Replies (1 - 3)
post Oct 9 2019, 08:03:48
Post #2

Наливай!
**************
Group: Металариец
Posts: 5,421
Releases: 27
From: Москва-Бибирево
On Forums: 11 years 7 months
Thanks: 2638 time(s)
Russian Federation


А нет ли здесь корчика? (IMG:style_emoticons/default/hmm.gif)
Go to the top of the page
  Insert nick Quick quote
+Quote Post
post Oct 9 2019, 08:41:12
Post #3

hearer & reader
**************
Group: Металариец
Posts: 8,132
Releases: 106
From: Moscow
On Forums: 12 years 1 month
Thanks: 7606 time(s)
Russian Federation


ЦИТАТА
We are Forsaking Fate and we play brutal Thrashy Melodic Death Groove..

Грувисто, но не користо (IMG:style_emoticons/default/crazy.gif)
Go to the top of the page
  Insert nick Quick quote
+Quote Post
post Oct 9 2019, 19:25:37
Post #4

MDM-Thrash Metal
**************
Group: Металариец
Posts: 8,902
Releases: 684
From: Одесса
On Forums: 12 years 2 months
Thanks: 18899 time(s)
Ukraine


Корчик, грувисто - но, сцука, с первых же аккордов пластмасовые ударные просто слух режут...
Go to the top of the page
  Insert nick Quick quote
+Quote Post

Reply to this topicStart new topic
1 User(s) are reading this topic (1 Guests and 0 Anonymous Users)
0 Members:

 



- Lo-Fi Version Support form
Copyrights and abuse reports form
Time is now: 22nd October 2019 - 07:32:06