Welcome Guest ( Log In | Register )

> Forsaking Fate - Forsaking Fate [ep] (2019), Melodic Death Metal
post Oct 8 2019, 21:25:33
Post #1

Правь статус, ####!111
**************
Group: Металариец
Posts: 21,938
Releases: 15137
From: Г.Харьков
On Forums: 8 years 3 weeks
Thanks: 274758 time(s)
Unknown


(IMG:http://metalarea.org/images/audiocovers/2019_Oct/acov_tid328507_thumb.jpg)

*Artist: Forsaking Fate
*Album: Forsaking Fate [ep]
*Year: 2019
*Genre: Melodic Death Metal
*Country: South Africa (IMG:http://metalarea.org/forum/style_images/flags/South%20Africa.png)
*Format: mp3@CBR320kbps
*Size: 41MB

Tracklist:
01. Prologue
02. Illusions
03. The End of Existence
04. Retribution
05. Souls of Demolition
******************************
Total playing time: 19:07




Extended info
Grant Hensburg - Guitar/Vocals
Rory Townes - Drums
Edd van Wyk - Bass


Technical info
(IMG:http://metalarea.org/images/spectrogram/2019_Oct/d0d59769c1789f6dca73866b0e84b5d9.png)
Input File: 03. The End of Existence.mp3
Channels : 2
Sample Rate : 44100
Precision : 16-bit
Duration : 00:04:32.87 = 12033435 samples = 20465 CDDA sectors
File Size : 11.1M
Bit Rate : 324k
Sample Encoding: MPEG audio (layer I, II or III)
Comments :
Title=The End of Existence
Artist=Forsaking Fate
Album=Forsaking Fate
Tracknumber=3/5
Year=2019
Genre=9
Discnumber=1/1



Register


Go to the top of the page
  Insert nick Quick quote
+Quote Post
 
Start new topic
Replies (1 - 3)
post Oct 9 2019, 08:03:48
Post #2

Наливай!
**************
Group: Металариец
Posts: 5,723
Releases: 27
From: Москва-Бибирево
On Forums: 12 years 2 months
Thanks: 2895 time(s)
Russian Federation


А нет ли здесь корчика? (IMG:style_emoticons/default/hmm.gif)
Go to the top of the page
  Insert nick Quick quote
+Quote Post
post Oct 9 2019, 08:41:12
Post #3

hearer & reader
**************
Group: Металариец
Posts: 8,707
Releases: 140
From: Moscow
On Forums: 12 years 8 months
Thanks: 8742 time(s)
Russian Federation


ЦИТАТА
We are Forsaking Fate and we play brutal Thrashy Melodic Death Groove..

Грувисто, но не користо (IMG:style_emoticons/default/crazy.gif)
Go to the top of the page
  Insert nick Quick quote
+Quote Post
post Oct 9 2019, 19:25:37
Post #4

MDM-Thrash Metal
**************
Group: Металариец
Posts: 9,536
Releases: 865
From: Одесса
On Forums: 12 years 9 months
Thanks: 22681 time(s)
Ukraine


Корчик, грувисто - но, сцука, с первых же аккордов пластмасовые ударные просто слух режут...
Go to the top of the page
  Insert nick Quick quote
+Quote Post

Reply to this topicStart new topic
1 User(s) are reading this topic (1 Guests and 0 Anonymous Users)
0 Members:

 



- Lo-Fi Version Support form
Copyrights and abuse reports form
Time is now: 4th June 2020 - 06:19:04