Welcome Guest ( Log In | Register )

> И неформату есть предел.

Рэп/хип-хоп/шансон/поп удаляются. Для них есть свои порталы.

> Acid Mothers Temple & The Melting Paraiso U.F.O. - Electric Dream Ecstasy (2018), Acid/Psychedelic Rock/Heavy Psych
post Oct 9 2019, 06:14:08
Post #1

Правь статус, ####!111
**************
Group: Металариец
Posts: 43,403
Releases: 654
On Forums: 10 years 4 months
Thanks: 34471 time(s)
Russian Federation


(IMG:http://metalarea.org/images/audiocovers/2019_Oct/acov_tid328516_thumb.jpg)

*Artist: Acid Mothers Temple & The Melting Paraiso U.F.O.
*Album: Electric Dream Ecstasy
*Year: 2018
*Genre: Acid/Psychedelic Rock/Heavy Psych
*Country: Japan (IMG:http://metalarea.org/forum/style_images/flags/Japan.png)
*Format: mp3@CBR320kbps
*Size: 116MB

Tracklist:
1. From Planet Orb With Love Part 1 11:32
2. Pink Lady Lemonade (Youre My Orb) 08:43
3. Sycamore Trees 11:29
4. Pink Lady Lemonade (Electric Dream Ecstasy) 19:12
******************************
Total playing time: 50:56



Technical info
(IMG:http://metalarea.org/images/spectrogram/2019_Oct/7d3f9e6ec96a8025cf05fb1d04dc3e65.png)
Input File: 01. From Planet Orb With Love Part 1.mp3
Channels : 2
Sample Rate : 44100
Precision : 16-bit
Duration : 00:11:32.21 = 30526373 samples = 51915.6 CDDA sectors
File Size : 27.9M
Bit Rate : 323k
Sample Encoding: MPEG audio (layer I, II or III)
Comments :
Title=From Planet Orb With Love Part 1
Artist=Acid Mothers Temple & The Melting Paraiso U.F.O.
Album=Electric Dream Ecstasy
Tracknumber=01
Year=2018
Genre=Psychedelic



Register


Thanks:
Go to the top of the page
  Insert nick Quick quote
+Quote Post
 
Start new topic
Replies (1 - 1)
post Oct 10 2019, 08:04:07
Post #2

Правь статус, ####!111
**************
Group: Металариец
Posts: 43,403
Releases: 654
On Forums: 10 years 4 months
Thanks: 34471 time(s)
Russian Federation


Эти безумные японцы записали более 80 студийников и еще до фига коллабораций и лайвов. Их музыка - нескованное ничем свободное буйство (инструментального) кислотно-психоделического рока, местами нойза, дума и импровизации.

Очень, очень хорошо. Трэк Pink Lady Lemonade (Electric Dream Ecstasy) отсюда, ранее уже мелькавший на других их записях (в других версиях) просто шикарен. (IMG:style_emoticons/default/20.gif)


Thanks:
(1) gena,
Go to the top of the page
  Insert nick Quick quote
+Quote Post

Reply to this topicStart new topic
1 User(s) are reading this topic (1 Guests and 0 Anonymous Users)
0 Members:

 



- Lo-Fi Version Support form
Copyrights and abuse reports form
Time is now: 21st October 2019 - 00:55:08