Welcome Guest ( Log In | Register )

> И неформату есть предел.

Рэп/хип-хоп/шансон/поп удаляются. Для них есть свои порталы.

 
Reply to this topicStart new topic
> Wolcensmen - Fire In The White Stone (2019), Neofolk (D4)
post Oct 9 2019, 19:26:45
Post #1

ΕΥΜΕΝΙΔΕΣ
**************
Group: Металариец
Posts: 2,187
Releases: 26
From: Киев
On Forums: 12 years 8 months
Thanks: 2920 time(s)
Ukraine


(IMG:https://metalarea.org/images/audiocovers/2019_Oct/acov_tid328547_thumb.jpg)

*Artist: Wolcensmen
*Album: Fire In The White Stone
*Year: 2019
*Genre: Neofolk
*Country: United Kingdom (IMG:https://metalarea.org/forum/style_images/flags/United%20Kingdom.png)
*Format: mp3@CBR320kbps
*Size: 111MB

Tracklist:
1 Foreboden & a Gainsaying 5:23
2 Lorn and Loath 7:35
3 Hunted 4:21
4 The Woodwose 0:50
5 Of Thralls and Throes 5:12
6 The Swans of Gar's Edge 6:32
7 Maidens of the Rimeland 3:47
8 Fellowship 1:47
9 Sprig to Spear 5:42
10 Fire in the White Stone 8:26
******************************
Total playing time: 49:35



Technical info
(IMG:https://metalarea.org/images/spectrogram/2019_Oct/5f0f34e01bd582876a9942af9bdf8e1a.png)
Input File: 01 - Foreboden & A Gainsaying.mp3
Channels : 2
Sample Rate : 44100
Precision : 16-bit
Duration : 00:05:23.75 = 14277507 samples = 24281.5 CDDA sectors
File Size : 13.0M
Bit Rate : 320k
Sample Encoding: MPEG audio (layer I, II or III)
Comments :
Title=Foreboden & A Gainsaying
Artist=Wolcensmen
Album=Fire In The White Stone
Tracknumber=01
Year=2019
Genre=Neofolk



Register


Go to the top of the page
  Insert nick Quick quote
+Quote Post

Reply to this topicStart new topic
1 User(s) are reading this topic (1 Guests and 0 Anonymous Users)
0 Members:

 



- Lo-Fi Version Support form
Copyrights and abuse reports form
Time is now: 22nd October 2019 - 07:05:20