Welcome Guest ( Log In | Register )

> И неформату есть предел.

Рэп/хип-хоп/шансон/поп удаляются. Для них есть свои порталы.

> Melodien - Enantiodromia (2019), Krautrock/Electronic
post Oct 9 2019, 19:45:17
Post #1

Правь статус, ####!111
**************
Group: Металариец
Posts: 43,403
Releases: 654
On Forums: 10 years 4 months
Thanks: 34471 time(s)
Russian Federation


(IMG:http://metalarea.org/images/audiocovers/2019_Oct/acov_tid328548_thumb.jpg)

*Artist: Melodien
*Album: Enantiodromia
*Year: 2019
*Genre: Krautrock/Electronic
*Country: United Kingdom (IMG:http://metalarea.org/forum/style_images/flags/United%20Kingdom.png)
*Format: mp3@CBR320kbps
*Size: 94MB

Tracklist:
1. Spirit of Mercury 08:27
2. Imaginary Lives 03:32
3. Endless Zuk 04:13
4. Myona 04:47
5. Spirit of Ruins 05:37
6. Brassaï 05:33
7. Čas, Duše, a Smyslnost 01:37
8. Hermogenes 07:06
******************************
Total playing time: 40:52



Technical info
(IMG:http://metalarea.org/images/spectrogram/2019_Oct/88e215b5ef26409a71de05b89ba89ad3.png)
Input File: melodien - enantiodromia - 01 spirit of mercury.mp3
Channels : 2
Sample Rate : 44100
Precision : 16-bit
Duration : 00:08:27.87 = 22397243 samples = 38090.5 CDDA sectors
File Size : 20.4M
Bit Rate : 322k
Sample Encoding: MPEG audio (layer I, II or III)
Comments :
Title=Spirit of Mercury
Artist=Melodien
Album=Enantiodromia
Tracknumber=1
Year=2019



Register


Go to the top of the page
  Insert nick Quick quote
+Quote Post
 
Start new topic
Replies (1 - 3)
post Oct 10 2019, 08:00:32
Post #2

Правь статус, ####!111
**************
Group: Металариец
Posts: 43,403
Releases: 654
On Forums: 10 years 4 months
Thanks: 34471 time(s)
Russian Federation


Великолепнейший краут. Все песни шикарны и атмосферны как на подбор. На бэндкампе все остальные альбомы можно бесплатно хапнуть. (IMG:style_emoticons/default/smile1.gif)
Go to the top of the page
  Insert nick Quick quote
+Quote Post
post Oct 10 2019, 14:20:41
Post #3

Правь статус, ####!111
**************
Group: Металариец
Posts: 43,403
Releases: 654
On Forums: 10 years 4 months
Thanks: 34471 time(s)
Russian Federation


Все остальные альбомы этого талантливого англичанина, которые есть на БК также великолепны. Хапайте, не обломаетесь (IMG:style_emoticons/default/pleased.gif)
Go to the top of the page
  Insert nick Quick quote
+Quote Post
post Oct 14 2019, 12:38:33
Post #4

Правь статус, ####!111
**************
Group: Металариец
Posts: 43,403
Releases: 654
On Forums: 10 years 4 months
Thanks: 34471 time(s)
Russian Federation


Особенно смачен из всей диско вот этот альбомец:



Хапаем на халяву!
Go to the top of the page
  Insert nick Quick quote
+Quote Post

Reply to this topicStart new topic
1 User(s) are reading this topic (1 Guests and 0 Anonymous Users)
0 Members:

 



- Lo-Fi Version Support form
Copyrights and abuse reports form
Time is now: 21st October 2019 - 00:37:41