Welcome Guest ( Log In | Register )

> 

Здесь релизы с живыми прямыми ссылками на lossless

> Eye Of The Enemy - Titan (2019), Modern/Melodic Death Metal
post Oct 10 2019, 11:58:03
Post #1

Serial Uploader
Group Icon
Group: V.I.P
Posts: 36,306
Releases: 34500
From: Lithuania
On Forums: 11 years 4 months
Thanks: 401568 time(s)
Lithuania


(IMG:https://metalarea.org/images/audiocovers/2019_Oct/acov_tid328580_thumb.jpg)

*Artist: Eye Of The Enemy
*Album: Titan
*Year: 2019
*Genre: Modern/Melodic Death Metal
*Country: Australia (IMG:https://metalarea.org/forum/style_images/flags/Australia.png)
*Format: mp3@CBR320kbps
*Size: 106MB

Tracklist:
01. Clay
02. Empire
03. Of Blood and Wine
04. The Artist's Decay
05. Stress and Colours
06. Tabula Rasa
07. Titan
08. Cinders
09. Abrasive Turns of Phrases
10. Hooks and Wires
******************************
Total playing time: 46:08

(IMG:https://metalarea.org/images/myspace.png)



(IMG:https://metalarea.org/images/youtube.png)

Technical info
(IMG:https://metalarea.org/images/spectrogram/2019_Oct/3fe51c555766df5e777bc11e0ae1c827.png)
Input File: 02 Empire.mp3
Channels : 2
Sample Rate : 44100
Precision : 16-bit
Duration : 00:05:07.50 = 13560926 samples = 23062.8 CDDA sectors
File Size : 12.3M
Bit Rate : 320k
Sample Encoding: MPEG audio (layer I, II or III)
Comments :
Title=Empire
Artist=Eye of the Enemy
Album=Titan
Tracknumber=02/10
Year=2019-19-20
Discnumber=1/1



Register


Go to the top of the page
  Insert nick Quick quote
+Quote Post
 
Start new topic
Replies (1 - 3)
post Oct 10 2019, 13:18:36
Post #2

Dark Ambient Shoujo
**********
Group: Металариец
Posts: 1,183
Releases: 1
On Forums: 10 years 9 months
Thanks: 601 time(s)
Russian Federation


Если учесть, что эволюционно рога у многих животных сформулировались как атрибут внутривидовой борьбы за доминирование, а не как средство нападения, на всяких рогатых чертей на обложках можно взглянуть с новой, неожиданной стороны...


Go to the top of the page
  Insert nick Quick quote
+Quote Post
post Oct 10 2019, 14:55:07
Post #3

Два Литра
**
Group: Завсегдатай
Posts: 168
Releases: 1
On Forums: 1 year 4 months
Thanks: 109 time(s)
Russian Federation


Клип на "Clay" весьма любопытным показался. Заценим альбом.
Go to the top of the page
  Insert nick Quick quote
+Quote Post
post Oct 11 2019, 10:08:20
Post #4

Два Литра
**
Group: Завсегдатай
Posts: 104
Releases: 2
On Forums: 9 years 3 months
Thanks: 116 time(s)
Russian Federation


FLAC:
Register


Thanks:
(1) Dark Sage,
Go to the top of the page
  Insert nick Quick quote
+Quote Post

Reply to this topicStart new topic
1 User(s) are reading this topic (1 Guests and 0 Anonymous Users)
0 Members:

 



- Lo-Fi Version Support form
Copyrights and abuse reports form
Time is now: 21st October 2019 - 00:49:40