Welcome Guest ( Log In | Register )

> 

Здесь релизы с живыми прямыми ссылками на lossless

> Shadecrown - Riven (2019), Melodic Death/Doom Metal
post Oct 10 2019, 13:23:07
Post #1

Serial Uploader
Group Icon
Group: V.I.P
Posts: 36,306
Releases: 34500
From: Lithuania
On Forums: 11 years 4 months
Thanks: 401573 time(s)
Lithuania


(IMG:https://metalarea.org/images/audiocovers/2019_Oct/acov_tid328590_thumb.jpg)

*Artist: Shadecrown
*Album: Riven
*Year: 2019
*Genre: Melodic Death/Doom Metal
*Country: Finland (IMG:https://metalarea.org/forum/style_images/flags/Finland.png)
*Format: mp3@CBR320kbps
*Size: 103MB

Tracklist:
01. Not Until the End 05:50
02. Lifelong Dying 05:58
03. Rain's Edge 05:13
04. The Ghost I Mourn 04:08
05. Incomplete 06:37
06. Hate Reflected 04:27
07. Divided 07:24
08. Traces 05:18
******************************
Total playing time: 44:55



(IMG:https://metalarea.org/images/youtube.png)

Technical info
(IMG:https://metalarea.org/images/spectrogram/2019_Oct/8a7c6eda697571231d7bdc8a6aa17d37.png)
Input File: 6 - Hate Reflected.mp3
Channels : 2
Sample Rate : 44100
Precision : 16-bit
Duration : 00:04:27.09 = 11778669 samples = 20031.7 CDDA sectors
File Size : 10.7M
Bit Rate : 322k
Sample Encoding: MPEG audio (layer I, II or III)
Comments :
Title=Hate Reflected
Artist=Shadecrown
Album=Riven
Tracknumber=6
Year=2019
Genre=Metal
Discnumber=1



Register


Go to the top of the page
  Insert nick Quick quote
+Quote Post
 
Start new topic
Replies (1 - 2)
post Oct 10 2019, 14:51:21
Post #2

Правь статус, ####!111
**************
Group: Металариец
Posts: 19,079
Releases: 12876
From: Г.Харьков
On Forums: 7 years 5 months
Thanks: 221009 time(s)
Unknown


Cloud Mail 320
Register


Go to the top of the page
  Insert nick Quick quote
+Quote Post
post Oct 11 2019, 10:10:24
Post #3

Два Литра
**
Group: Завсегдатай
Posts: 104
Releases: 2
On Forums: 9 years 3 months
Thanks: 116 time(s)
Russian Federation


FLAC:
Register


Thanks:
Go to the top of the page
  Insert nick Quick quote
+Quote Post

Reply to this topicStart new topic
1 User(s) are reading this topic (1 Guests and 0 Anonymous Users)
0 Members:

 



- Lo-Fi Version Support form
Copyrights and abuse reports form
Time is now: 21st October 2019 - 01:07:06