Welcome Guest ( Log In | Register )

> 

Здесь релизы с живыми прямыми ссылками на lossless

> Plaguestorm - Mother Of Plagues (2019), Melodic Death Metal
post Oct 10 2019, 13:59:33
Post #1

Serial Uploader
Group Icon
Group: V.I.P
Posts: 36,583
Releases: 34772
From: Lithuania
On Forums: 11 years 5 months
Thanks: 407018 time(s)
Lithuania


(IMG:https://metalarea.org/images/audiocovers/2019_Oct/acov_tid328596_thumb.jpg)

*Artist: Plaguestorm
*Album: Mother Of Plagues
*Year: 2019
*Genre: Melodic Death Metal
*Country: Argentina (IMG:https://metalarea.org/forum/style_images/flags/Argentina.png)
*Format: mp3@CBR320kbps
*Size: 102MB

Tracklist:
01. All Is Meant to Decay 05:41
02. The Bringers of Death 04:19
03. Darkness Consumes Us All 04:15
04. Fire Within 06:05
05. Lost in Oblivion 05:28
06. When the Flood Arrives 05:51
07. Man Becomes God 04:48
08. Mother of Plagues 04:58
******************************
Total playing time: 41:25




(IMG:https://metalarea.org/images/youtube.png)

Technical info
(IMG:https://metalarea.org/images/spectrogram/2019_Oct/da60276ab70c8b5d423c8d89d2571d37.png)
Input File: 2 - The Bringers Of Death.mp3
Channels : 2
Sample Rate : 44100
Precision : 16-bit
Duration : 00:04:19.28 = 11434204 samples = 19445.9 CDDA sectors
File Size : 10.4M
Bit Rate : 321k
Sample Encoding: MPEG audio (layer I, II or III)
Comments :
Title=The Bringers Of Death
Artist=Plaguestorm/Mikael Sehlin
Album=Mother Of Plagues
Tracknumber=2
Year=2019
Genre=Rock/Metal
Discnumber=1



Register


Go to the top of the page
  Insert nick Quick quote
+Quote Post
 
Start new topic
Replies (1 - 1)
post Oct 11 2019, 10:05:49
Post #2

Два Литра
**
Group: Завсегдатай
Posts: 127
Releases: 2
On Forums: 9 years 5 months
Thanks: 142 time(s)
Russian Federation


FLAC:
Register


Thanks:
Go to the top of the page
  Insert nick Quick quote
+Quote Post

Reply to this topicStart new topic
1 User(s) are reading this topic (1 Guests and 0 Anonymous Users)
0 Members:

 



- Lo-Fi Version Support form
Copyrights and abuse reports form
Time is now: 7th December 2019 - 05:41:56