Welcome Guest ( Log In | Register )

> Deviate Damaen - In Sanctitate, Benignitatis Non Miseretur! (2019), Extreme/Gothic Metal
post Oct 10 2019, 16:10:27
Post #1

Serial Uploader
Group Icon
Group: V.I.P
Posts: 37,112
Releases: 35296
From: Lithuania
On Forums: 11 years 9 months
Thanks: 418129 time(s)
Lithuania


(IMG:https://metalarea.org/images/audiocovers/2019_Oct/acov_tid328609_thumb.jpg)

*Artist: Deviate Damaen
*Album: In Sanctitate, Benignitatis Non Miseretur!
*Year: 2019
*Genre: Extreme/Gothic Metal
*Country: Italy (IMG:https://metalarea.org/forum/style_images/flags/Italy.png)
*Format: mp3@CBR320kbps
*Size: 168MB

Tracklist:
01. L'angelo Preferito, Il Primo Insorto, Il Più Antico Dannato
02. Tethrus
03. Sacre Gesta Vavalcano Il Metallo / Heilige Taten Reiten Das Metall
04. Santo Frà Diavolo, Spara Per Noi!
05. Aspetterò L'altrove
06. I Tarocchi Della Vostra Sfiga
07. Font Near The Ossuary
08. Fratelli D'occidente, Salviamo Noi Stessi Dall'estinzione!
09. Signore E Dio In Te Confido
10. L'urlo Del Cappuccino
******************************
Total playing time: 1:13:05



(IMG:https://metalarea.org/images/youtube.png)

Technical info
(IMG:https://metalarea.org/images/spectrogram/2019_Oct/b243c5ee99144bf38b8ce6e96310d6c9.png)
Input File: 02. Tethrus.mp3
Channels : 2
Sample Rate : 44100
Precision : 16-bit
Duration : 00:11:51.85 = 31392717 samples = 53389 CDDA sectors
File Size : 28.5M
Bit Rate : 321k
Sample Encoding: MPEG audio (layer I, II or III)
Comments :
Title=Tethrus
Artist=Deviate Damaen
Album=In sanctitate, benignitatis non miseretur!
Tracknumber=2/10
Year=2019
Genre=9
Discnumber=1/1



Register


Go to the top of the page
  Insert nick Quick quote
+Quote Post
 
Start new topic
Replies (1 - 2)
post Oct 12 2019, 13:00:12
Post #2

Ёлд ХеллоВяйне
Group Icon
Group: V.I.P
Posts: 28,951
Releases: 133
From: Питер
On Forums: 13 years 5 months
Thanks: 16816 time(s)
Russian Federation


Что-то похожее на музыку начинается только на третьем треке, а это уже 20+ минут. Впрочем, могло бы и не начинаться.
Go to the top of the page
  Insert nick Quick quote
+Quote Post
post Jan 15 2020, 11:01:39
Post #3

but I'm white and furry
**********
Group: Металариец
Posts: 1,292
Releases: 452
From: Москва
On Forums: 14 years 1 month
Thanks: 5778 time(s)
Russian Federation


ЦИТАТА(Old Vyaine @ Oct 12 2019, 15:00:12) *
Что-то похожее на музыку начинается только на третьем треке, а это уже 20+ минут. Впрочем, могло бы и не начинаться.

Да уж, интро почти на 10 минут, состоящее из бормотания на фоне органа - это мощно. Тэга авангард или экспериментал в стиле не хватает. Кстати в целом напомнило Samsas Traum/Adversus, только менее мелодично
Go to the top of the page
  Insert nick Quick quote
+Quote Post

Reply to this topicStart new topic
1 User(s) are reading this topic (1 Guests and 0 Anonymous Users)
0 Members:

 



- Lo-Fi Version Support form
Copyrights and abuse reports form
Time is now: 3rd April 2020 - 05:17:16