Welcome Guest ( Log In | Register )

> Releases Upload / Добавление релизов

Добавить релиз тут / Click here to add release
Рекомендованные обменники / Recommended file shares

> Vanished - Engulfed (2019), Death Metal
post Oct 10 2019, 17:18:35
Post #1

Правь статус, ####!111
**************
Group: Металариец
Posts: 19,079
Releases: 12876
From: Г.Харьков
On Forums: 7 years 5 months
Thanks: 221008 time(s)
Unknown


(IMG:http://metalarea.org/images/audiocovers/2019_Oct/acov_tid328615_thumb.jpg)

*Artist: Vanished
*Album: Engulfed
*Year: 2019
*Genre: Death Metal
*Country: United States (IMG:http://metalarea.org/forum/style_images/flags/United%20States.png)
*Format: mp3@CBR320kbps
*Size: 88MB

Tracklist:
01. Intro
02. Sanity
03. Molecular Suicide
04. Prophecy
05. Illusion Dream
06. Fade Into Obscurity
07. Clarity
08. Never Ending
09. Inside of Me
******************************
Total playing time: 41:52



Extended info
Vocals- DJ Kolias
Guitar - Nick Accardi
Drummer - Coleman Ayers
Bass - Guadalupe Van Halen
Guitar - Rodely Joachim


Technical info
(IMG:http://metalarea.org/images/spectrogram/2019_Oct/0a7e42acb841684230519c02e49d375a.png)
Input File: 03. Molecular Suicide.mp3
Channels : 2
Sample Rate : 44100
Precision : 16-bit
Duration : 00:06:48.92 = 18033372 samples = 30669 CDDA sectors
File Size : 16.4M
Bit Rate : 322k
Sample Encoding: MPEG audio (layer I, II or III)
Comments :
Title=Molecular Suicide
Artist=Vanished
Album=Engulfed
Tracknumber=3/9
Year=2019
Genre=9
Discnumber=1/1



Register


Go to the top of the page
  Insert nick Quick quote
+Quote Post
 
Start new topic
Replies (1 - 2)
post Oct 11 2019, 02:40:07
Post #2

Правь статус, ####!111
**************
Group: Металариец
Posts: 19,079
Releases: 12876
From: Г.Харьков
On Forums: 7 years 5 months
Thanks: 221008 time(s)
Unknown


Cloud Mail 320
Register


Thanks:
(1) older68,
Go to the top of the page
  Insert nick Quick quote
+Quote Post
post Oct 12 2019, 22:06:27
Post #3

MDM-Thrash Metal
**************
Group: Металариец
Posts: 8,889
Releases: 681
From: Одесса
On Forums: 12 years 2 months
Thanks: 18852 time(s)
Ukraine


Go to the top of the page
  Insert nick Quick quote
+Quote Post

Reply to this topicStart new topic
1 User(s) are reading this topic (1 Guests and 0 Anonymous Users)
0 Members:

 



- Lo-Fi Version Support form
Copyrights and abuse reports form
Time is now: 21st October 2019 - 00:38:17