Welcome Guest ( Log In | Register )

> Releases Upload / Добавление релизов

Добавить релиз тут / Click here to add release
Рекомендованные обменники / Recommended file shares

 
Reply to this topicStart new topic
> Driving Force - All Aboard (2019), Heavy Metal
post Oct 10 2019, 17:57:41
Post #1

MDM-Thrash Metal
**************
Group: Металариец
Posts: 8,884
Releases: 677
From: Одесса
On Forums: 12 years 2 months
Thanks: 18791 time(s)
Ukraine


(IMG:http://metalarea.org/images/audiocovers/2019_Oct/acov_tid328616_thumb.jpg)

*Artist: Driving Force
*Album: All Aboard
*Year: 2019
*Genre: Heavy Metal
*Country: Switzerland (IMG:http://metalarea.org/forum/style_images/flags/Switzerland.png)
*Format: mp3@CBR192kbps
*Size: 72MB

Tracklist:
1. Dog House 04:58
2. Black Beauty 05:03
3. The Battle 04:41
4. All Aboard 05:20
5. Again 05:06
6. Sticky Shit Kid 03:54
7. Like a Weed 04:34
8. Dont Walk Away 04:46
9. Nemesis 04:06
10. Razorblade 04:21
11. Rat Race 03:53
******************************
Total playing time: 50:42


(IMG:http://metalarea.org/images/youtube.png)
(IMG:http://metalarea.org/images/youtube.png)
(IMG:http://metalarea.org/images/youtube.png)
(IMG:http://metalarea.org/images/youtube.png)

Extended info
Эх, еще бы вокал бы помощнее!


Technical info
(IMG:http://metalarea.org/images/spectrogram/2019_Oct/addd632fe8199870145da2c9543f3cd0.png)
Input File: 02_driving_force_switzerland_black_beauty.mp3
Channels : 2
Sample Rate : 44100
Precision : 16-bit
Duration : 00:05:03.00 = 13362300 samples = 22725 CDDA sectors
File Size : 7.57M
Bit Rate : 200k
Sample Encoding: MPEG audio (layer I, II or III)
Comments :
Title=Black Beauty
Artist=Driving Force [Switzerland]
Album=All Aboard
Tracknumber=02
Year=2019



Register


Go to the top of the page
  Insert nick Quick quote
+Quote Post

Reply to this topicStart new topic
1 User(s) are reading this topic (1 Guests and 0 Anonymous Users)
0 Members:

 



- Lo-Fi Version Support form
Copyrights and abuse reports form
Time is now: 19th October 2019 - 23:33:30