Welcome Guest ( Log In | Register )

> Releases Upload / Добавление релизов

Добавить релиз тут / Click here to add release
Рекомендованные обменники / Recommended file shares

 
Reply to this topicStart new topic
> Lujuria - Somos Belial (2019), Heavy Metal
post Oct 10 2019, 18:22:45
Post #1

MDM-Thrash Metal
**************
Group: Металариец
Posts: 8,884
Releases: 677
From: Одесса
On Forums: 12 years 2 months
Thanks: 18791 time(s)
Ukraine


(IMG:http://metalarea.org/images/audiocovers/2019_Oct/acov_tid328617_thumb.jpg)

*Artist: Lujuria
*Album: Somos Belial
*Year: 2019
*Genre: Heavy Metal
*Country: Spain (IMG:http://metalarea.org/forum/style_images/flags/Spain.png)
*Format: mp3@CBR320kbps
*Size: 114MB

Tracklist:
1. Nikkal 03:06
2. Somos Belial 04:11
3. Messe Noire 04:25
4. Siempre metal, invicto metal 05:35
5. El ángel de la lujuria y un diablo loco de amor 04:20
6. El amor está en el aire 05:07
7. Como puta por rastrojo 03:47
8. Tapar agujeros 03:57
9. Cuando estás conmigo (la única balada sincera del mundo) 04:11
10. Migas de paz 04:32
11. El principio del fin 04:07
******************************
Total playing time: 47:18


(IMG:http://metalarea.org/images/youtube.png)
(IMG:http://metalarea.org/images/youtube.png)


Technical info
(IMG:http://metalarea.org/images/spectrogram/2019_Oct/78498b55425b4d2a7b830146bfa13211.png)
Input File: 02_lujuria_somos_belial.mp3
Channels : 2
Sample Rate : 44100
Precision : 16-bit
Duration : 00:04:10.92 = 11065704 samples = 18819.2 CDDA sectors
File Size : 10.7M
Bit Rate : 340k
Sample Encoding: MPEG audio (layer I, II or III)
Comments :
Title=Somos Belial
Artist=Lujuria
Album=Somos Belial
Tracknumber=2/11
Year=2019
Discnumber=1/1



Register


Go to the top of the page
  Insert nick Quick quote
+Quote Post

Reply to this topicStart new topic
1 User(s) are reading this topic (1 Guests and 0 Anonymous Users)
0 Members:

 



- Lo-Fi Version Support form
Copyrights and abuse reports form
Time is now: 19th October 2019 - 22:51:13