Welcome Guest ( Log In | Register )

> Releases Upload / Добавление релизов

Добавить релиз тут / Click here to add release
Рекомендованные обменники / Recommended file shares

 
Reply to this topicStart new topic
> Disfigurement Of Flesh - Shrine Of Immortals [ep] (2019), Brutal Death Metal
post Oct 10 2019, 18:47:03
Post #1

Правь статус, ####!111
**************
Group: Металариец
Posts: 19,079
Releases: 12876
From: Г.Харьков
On Forums: 7 years 5 months
Thanks: 221009 time(s)
Unknown


(IMG:http://metalarea.org/images/audiocovers/2019_Oct/acov_tid328620_thumb.jpg)

*Artist: Disfigurement Of Flesh
*Album: Shrine Of Immortals [ep]
*Year: 2019
*Genre: Brutal Death Metal
*Country: Russian Federation (IMG:http://metalarea.org/forum/style_images/flags/Russian%20Federation.png)
*Format: mp3@CBR320kbps
*Size: 26MB

Tracklist:
1. Immortals from Beyond 02:02
2. Shrine of Disgusted 03:06
3. Sickening Abstraction 03:24
4. Nucleus of Pathologies 03:55
******************************
Total playing time: 12:27




Extended info
Constantine Chevardin Guitars (2010-present)
See also: Morphogenetic Malformation, Traumatomy
Kirill Nazarov Vocals (2014-present)
See also: Autopsy Malice, Decomposition of Entrails, Morphogenetic Malformation, ex-Traumatomy (live)
Denis Gordeev Drums (2017-present)
See also: ex-Bigot


Technical info
(IMG:http://metalarea.org/images/spectrogram/2019_Oct/9fbca2a83ff6fc620e4c2d53dc08de07.png)
Input File: 04. Nucleus Of Pathologies.mp3
Channels : 2
Sample Rate : 44100
Precision : 16-bit
Duration : 00:03:55.12 = 10368704 samples = 17633.9 CDDA sectors
File Size : 9.56M
Bit Rate : 325k
Sample Encoding: MPEG audio (layer I, II or III)
Comments :
Title=Nucleus Of Pathologies
Artist=Disfigurement Of Flesh
Album=Shrine Of Immortals
Tracknumber=4/4
Year=2019
Discnumber=1/1



Register


Go to the top of the page
  Insert nick Quick quote
+Quote Post

Reply to this topicStart new topic
1 User(s) are reading this topic (1 Guests and 0 Anonymous Users)
0 Members:

 



- Lo-Fi Version Support form
Copyrights and abuse reports form
Time is now: 21st October 2019 - 01:08:15