Welcome Guest ( Log In | Register )

> Releases Upload / Добавление релизов

Добавить релиз тут / Click here to add release
Рекомендованные обменники / Recommended file shares

 
Reply to this topicStart new topic
> Feelament - Hate Delivery (2018), Groove Metal/Metalcore
post Oct 10 2019, 19:09:15
Post #1

Каждое ваше "Спасибо" помогает мне понять, что я делаю новости не напрасно.
**************
Group: Металариец
Posts: 2,002
Releases: 1754
From: Одесса
On Forums: 11 years 4 months
Thanks: 15206 time(s)
Ukraine


(IMG:http://metalarea.org/images/audiocovers/2019_Oct/acov_tid328622_thumb.jpg)

*Artist: Feelament
*Album: Hate Delivery
*Year: 2018
*Genre: Groove Metal/Metalcore
*Country: Russian Federation (IMG:http://metalarea.org/forum/style_images/flags/Russian%20Federation.png)
*Format: mp3@CBR320kbps
*Size: 80MB

Tracklist:
1.Intro 01:32 instrumental
2.Power and Glory 04:06
3.What's the Price 03:31
4.Hate Delivery 04:49
5.Trapped 04:48
6.Obsessed 03:33
7.Great Tragedy 05:22
8.Incurable Disease 04:42
9.Outro 03:30 instrumental
******************************
Total playing time: 35:53



Extended info
Line - up:

Yaroslav Bugakov - Bass, Samples
Timur Zhabbarov - Guitars
Mariya Balyasova - Vocals
Nikita Ladygin - Drums

(IMG:https://www.metal-archives.com/images/3/5/4/0/3540398439_photo.jpg?2710)



Technical info
(IMG:http://metalarea.org/images/spectrogram/2019_Oct/c88a8e04e17981e22cfaee67c38c1bf7.png)
Input File: 01 Intro.mp3
Channels : 2
Sample Rate : 44100
Precision : 16-bit
Duration : 00:01:32.27 = 4069195 samples = 6920.4 CDDA sectors
File Size : 3.69M
Bit Rate : 320k
Sample Encoding: MPEG audio (layer I, II or III)
Comments :
Title=Intro
Artist=Feelament
Album=Hate Delivery
Tracknumber=1
Year=2018
Genre=Groove Metal/Metalcore



Register


Go to the top of the page
  Insert nick Quick quote
+Quote Post

Reply to this topicStart new topic
2 User(s) are reading this topic (2 Guests and 0 Anonymous Users)
0 Members:

 



- Lo-Fi Version Support form
Copyrights and abuse reports form
Time is now: 19th October 2019 - 23:30:38