Welcome Guest ( Log In | Register )

> Solace - Hanging Tree (2019), Melodic Death Metal
post Oct 10 2019, 19:21:19
Post #1

Правь статус, ####!111
**************
Group: Металариец
Posts: 21,887
Releases: 15090
From: Г.Харьков
On Forums: 8 years 2 weeks
Thanks: 273723 time(s)
Unknown


(IMG:http://metalarea.org/images/audiocovers/2019_Oct/acov_tid328623_thumb.jpg)

*Artist: Solace
*Album: Hanging Tree
*Year: 2019
*Genre: Melodic Death Metal
*Country: Germany (IMG:http://metalarea.org/forum/style_images/flags/Germany.png)
*Format: mp3@CBR320kbps
*Size: 79MB

Tracklist:
1. With Open Eyes
2. Your Weakness
3. My Curse Upon You
4. Hanging Tree
5. Holy Rules
6. Golden Dawn
7. Sulfur and Nightshade
******************************
Total playing time: 34:27



Extended info
Anette Bass
Marcel Drums
Bastian Guitars
Volker Guitars
Johannes "Jo" Vocals
See also: Tantrum


Technical info
(IMG:http://metalarea.org/images/spectrogram/2019_Oct/f7b4ce8c176c485e12c73c734a56e145.png)
Input File: 03 - My Curse Upon You.mp3
Channels : 2
Sample Rate : 44100
Precision : 16-bit
Duration : 00:06:29.14 = 17161118 samples = 29185.6 CDDA sectors
File Size : 15.7M
Bit Rate : 322k
Sample Encoding: MPEG audio (layer I, II or III)
Comments :
Title=My Curse Upon You
Artist=Solace
Album=Hanging Tree
Tracknumber=3
Year=2019



Register


Go to the top of the page
  Insert nick Quick quote
+Quote Post
 
Start new topic
Replies (1 - 4)
post Oct 11 2019, 02:42:36
Post #2

Правь статус, ####!111
**************
Group: Металариец
Posts: 21,887
Releases: 15090
From: Г.Харьков
On Forums: 8 years 2 weeks
Thanks: 273723 time(s)
Unknown


Cloud Mail 320
Register


Thanks:
(1) VALERY,
Go to the top of the page
  Insert nick Quick quote
+Quote Post
post Oct 13 2019, 19:46:33
Post #3

MDMщик
**************
Group: Металариец
Posts: 6,095
Releases: 386
From: Asgaard
On Forums: 14 years 5 months
Thanks: 6011 time(s)
Saint Pierre and Miquelon


и как?
Go to the top of the page
  Insert nick Quick quote
+Quote Post
post Oct 13 2019, 20:55:26
Post #4

MDM-Thrash Metal
**************
Group: Металариец
Posts: 9,522
Releases: 861
From: Одесса
On Forums: 12 years 9 months
Thanks: 22610 time(s)
Ukraine


Как по мне - так очень слабенько. Отсутствие нормальных четких и жестких гитарных риффов, как то все однообразно и сливается в одну вязкую кашеобразную вязь...
Go to the top of the page
  Insert nick Quick quote
+Quote Post
post Oct 26 2019, 06:22:04
Post #5

Ъ
**************
Group: Металариец
Posts: 10,072
Releases: 9
On Forums: 11 years 4 months
Thanks: 2016 time(s)
Sweden


Третьесорт.
Go to the top of the page
  Insert nick Quick quote
+Quote Post

Reply to this topicStart new topic
1 User(s) are reading this topic (1 Guests and 0 Anonymous Users)
0 Members:

 



- Lo-Fi Version Support form
Copyrights and abuse reports form
Time is now: 30th May 2020 - 12:01:16