Welcome Guest ( Log In | Register )

> Releases Upload / Добавление релизов

Добавить релиз тут / Click here to add release
Рекомендованные обменники / Recommended file shares

> Mercaly Sin Piedad - Después Del Abismo (2019), Heavy/Thrash Metal
post Oct 10 2019, 20:43:52
Post #1

Правь статус, ####!111
**************
Group: Металариец
Posts: 19,069
Releases: 12855
From: Г.Харьков
On Forums: 7 years 5 months
Thanks: 220747 time(s)
Unknown


(IMG:http://metalarea.org/images/audiocovers/2019_Oct/acov_tid328625_thumb.jpg)

*Artist: Mercaly Sin Piedad
*Album: Después Del Abismo
*Year: 2019
*Genre: Heavy/Thrash Metal
*Country: Argentina (IMG:http://metalarea.org/forum/style_images/flags/Argentina.png)
*Format: mp3@CBR320kbps
*Size: 80MB

Tracklist:
1. Persecución 03:42
2. Susurros 04:06
3. No pensé 03:59
4. En pánico 03:47
5. El tren de la agresividad 04:11
6. Mil sombras 03:28
7. Terremoto 04:06
8. Ausencia tirana 06:29
******************************
Total playing time: 33:48



Extended info
Renzo Luconi Bass
Lito Cassatta Drums
Luis Salinas Guitars
Maximiliano Pringles Vocals


Technical info
(IMG:http://metalarea.org/images/spectrogram/2019_Oct/f5dc6d40b0de1003d3aead3d1a9898ab.png)
Input File: 02 - Susurros.mp3
Channels : 2
Sample Rate : 44100
Precision : 16-bit
Duration : 00:04:06.53 = 10872017 samples = 18489.8 CDDA sectors
File Size : 10.1M
Bit Rate : 329k
Sample Encoding: MPEG audio (layer I, II or III)
Comments :
Title=Susurros
Artist=Mercaly Sin Piedad
Album=Después del Abismo
Tracknumber=2
Year=2019



Register


Go to the top of the page
  Insert nick Quick quote
+Quote Post
 
Start new topic
Replies (1 - 2)
post Oct 11 2019, 02:37:19
Post #2

Правь статус, ####!111
**************
Group: Металариец
Posts: 19,069
Releases: 12855
From: Г.Харьков
On Forums: 7 years 5 months
Thanks: 220747 time(s)
Unknown


Cloud Mail 320
Register


Thanks:
Go to the top of the page
  Insert nick Quick quote
+Quote Post
post Oct 12 2019, 22:11:00
Post #3

MDM-Thrash Metal
**************
Group: Металариец
Posts: 8,884
Releases: 677
From: Одесса
On Forums: 12 years 2 months
Thanks: 18791 time(s)
Ukraine


Go to the top of the page
  Insert nick Quick quote
+Quote Post

Reply to this topicStart new topic
1 User(s) are reading this topic (1 Guests and 0 Anonymous Users)
0 Members:

 



- Lo-Fi Version Support form
Copyrights and abuse reports form
Time is now: 19th October 2019 - 22:57:12