Welcome Guest ( Log In | Register )

> Wolfanger - Ancients Call (2019), Melodic Death Metal
post Oct 11 2019, 00:09:24
Post #1

Правь статус, ####!111
**************
Group: Металариец
Posts: 21,863
Releases: 15074
From: Г.Харьков
On Forums: 8 years 2 weeks
Thanks: 273105 time(s)
Unknown


(IMG:http://metalarea.org/images/audiocovers/2019_Oct/acov_tid328628_thumb.jpg)

*Artist: Wolfanger
*Album: Ancients Call
*Year: 2019
*Genre: Melodic Death Metal
*Country: Ukraine (IMG:http://metalarea.org/forum/style_images/flags/Ukraine.png)
*Format: mp3@CBR320kbps
*Size: 96MB

Tracklist:
01. Wintercold 06:32
02. Servant of Death 03:38
03. Ancients Call 03:58
04. Into Oblivion 03:13
05. Endless Ladder 04:29
06. Serpent's Cave 04:00
07. Nightmare 04:38
08. Red Striped Sails 03:19
09. Afterlife 04:40
10. Last Fortress 04:00
******************************
Total playing time: 42:27



Preview 3

Extended info
Petro - vocals
Andrii - guitars
Olexii - guitars
Dmytro - bass
Alex - drums


Technical info
(IMG:http://metalarea.org/images/spectrogram/2019_Oct/74231ec0456f98f1fd6ec3b6daf6bd19.png)
Input File: 06 - Serpent\'s Cave.mp3
Channels : 2
Sample Rate : 44100
Precision : 16-bit
Duration : 00:04:00.07 = 10586911 samples = 18005 CDDA sectors
File Size : 9.61M
Bit Rate : 320k
Sample Encoding: MPEG audio (layer I, II or III)
Comments :
Title=Serpent's Cave
Artist=Wolfanger
Album=Ancients Call
Tracknumber=6
Year=2019



Register


Go to the top of the page
  Insert nick Quick quote
+Quote Post
 
Start new topic
Replies (1 - 5)
post Oct 12 2019, 13:38:10
Post #2

Ёлд ХеллоВяйне
Group Icon
Group: V.I.P
Posts: 29,680
Releases: 137
From: Питер
On Forums: 13 years 7 months
Thanks: 17586 time(s)
Russian Federation




Украинский ответ на Wolfheart? Достойно (что не касается записи, конечно).


Thanks:
Go to the top of the page
  Insert nick Quick quote
+Quote Post
post Oct 12 2019, 18:16:11
Post #3

Правь статус, ####!111
**************
Group: Металариец
Posts: 3,001
Releases: 8
From: Dnipro
On Forums: 11 years 10 months
Thanks: 970 time(s)
Ukraine


Не плохой альбом, да и запись в норме.


Thanks:
Go to the top of the page
  Insert nick Quick quote
+Quote Post
post Oct 15 2019, 17:01:27
Post #4

MDM-Thrash Metal
**************
Group: Металариец
Posts: 9,511
Releases: 861
From: Одесса
On Forums: 12 years 9 months
Thanks: 22570 time(s)
Ukraine


Отличный альбом, выдержанный по всем канонам жанра (и что радует, что без наличия всякого рода модернявости).


Thanks:
(1) Baarin,
Go to the top of the page
  Insert nick Quick quote
+Quote Post
post Oct 16 2019, 07:11:05
Post #5

мизантроп же
**********
Group: Металариец
Posts: 1,068
Releases: 8
From: Малаховка
On Forums: 13 years 2 months
Thanks: 1153 time(s)
Russian Federation


Ничего интересного. Последние пару треков уже не осилил и удалил.
Go to the top of the page
  Insert nick Quick quote
+Quote Post
post Oct 26 2019, 06:30:30
Post #6

Ъ
**************
Group: Металариец
Posts: 10,048
Releases: 9
On Forums: 11 years 4 months
Thanks: 2016 time(s)
Sweden


ЦИТАТА(Old Vyaine @ Oct 12 2019, 19:38:10) *
Украинский ответ на Wolfheart? Достойно (что не касается записи, конечно).

А где тут схожесть непосредственно с Волфхарт? Обычный третьесортный мдм, ничего конкретно от упомянутых финов здесь нет.
Go to the top of the page
  Insert nick Quick quote
+Quote Post

Reply to this topicStart new topic
1 User(s) are reading this topic (1 Guests and 0 Anonymous Users)
0 Members:

 



- Lo-Fi Version Support form
Copyrights and abuse reports form
Time is now: 28th May 2020 - 00:32:19