Welcome Guest ( Log In | Register )

> Releases Upload / Добавление релизов

Добавить релиз тут / Click here to add release
Рекомендованные обменники / Recommended file shares

> Wolfanger - Ancients Call (2019), Melodic Death Metal
post Oct 11 2019, 00:09:24
Post #1

Правь статус, ####!111
**************
Group: Металариец
Posts: 19,069
Releases: 12855
From: Г.Харьков
On Forums: 7 years 5 months
Thanks: 220755 time(s)
Unknown


(IMG:http://metalarea.org/images/audiocovers/2019_Oct/acov_tid328628_thumb.jpg)

*Artist: Wolfanger
*Album: Ancients Call
*Year: 2019
*Genre: Melodic Death Metal
*Country: Ukraine (IMG:http://metalarea.org/forum/style_images/flags/Ukraine.png)
*Format: mp3@CBR320kbps
*Size: 96MB

Tracklist:
01. Wintercold 06:32
02. Servant of Death 03:38
03. Ancients Call 03:58
04. Into Oblivion 03:13
05. Endless Ladder 04:29
06. Serpent's Cave 04:00
07. Nightmare 04:38
08. Red Striped Sails 03:19
09. Afterlife 04:40
10. Last Fortress 04:00
******************************
Total playing time: 42:27



Preview 3

Extended info
Petro - vocals
Andrii - guitars
Olexii - guitars
Dmytro - bass
Alex - drums


Technical info
(IMG:http://metalarea.org/images/spectrogram/2019_Oct/74231ec0456f98f1fd6ec3b6daf6bd19.png)
Input File: 06 - Serpent\'s Cave.mp3
Channels : 2
Sample Rate : 44100
Precision : 16-bit
Duration : 00:04:00.07 = 10586911 samples = 18005 CDDA sectors
File Size : 9.61M
Bit Rate : 320k
Sample Encoding: MPEG audio (layer I, II or III)
Comments :
Title=Serpent's Cave
Artist=Wolfanger
Album=Ancients Call
Tracknumber=6
Year=2019



Register


Go to the top of the page
  Insert nick Quick quote
+Quote Post
 
Start new topic
Replies (1 - 4)
post Oct 12 2019, 13:38:10
Post #2

Ёлд ХеллоВяйне
Group Icon
Group: V.I.P
Posts: 28,023
Releases: 132
From: Питер
On Forums: 12 years 11 months
Thanks: 15909 time(s)
Russian Federation




Украинский ответ на Wolfheart? Достойно (что не касается записи, конечно).


Thanks:
Go to the top of the page
  Insert nick Quick quote
+Quote Post
post Oct 12 2019, 18:16:11
Post #3

Правь статус, ####!111
**************
Group: Металариец
Posts: 2,681
Releases: 8
From: Dnipro
On Forums: 11 years 3 months
Thanks: 834 time(s)
Ukraine


Не плохой альбом, да и запись в норме.


Thanks:
Go to the top of the page
  Insert nick Quick quote
+Quote Post
post Oct 15 2019, 17:01:27
Post #4

MDM-Thrash Metal
**************
Group: Металариец
Posts: 8,884
Releases: 677
From: Одесса
On Forums: 12 years 2 months
Thanks: 18791 time(s)
Ukraine


Отличный альбом, выдержанный по всем канонам жанра (и что радует, что без наличия всякого рода модернявости).


Thanks:
(1) Baarin,
Go to the top of the page
  Insert nick Quick quote
+Quote Post
post Oct 16 2019, 07:11:05
Post #5

мизантроп же
**********
Group: Металариец
Posts: 1,032
Releases: 8
From: Малаховка
On Forums: 12 years 7 months
Thanks: 1133 time(s)
Russian Federation


Ничего интересного. Последние пару треков уже не осилил и удалил.
Go to the top of the page
  Insert nick Quick quote
+Quote Post

Reply to this topicStart new topic
1 User(s) are reading this topic (1 Guests and 0 Anonymous Users)
0 Members:

 



- Lo-Fi Version Support form
Copyrights and abuse reports form
Time is now: 20th October 2019 - 00:04:20