Welcome Guest ( Log In | Register )

> Releases Upload / Добавление релизов

Добавить релиз тут / Click here to add release
Рекомендованные обменники / Recommended file shares

 
Reply to this topicStart new topic
> Obscurum Malum - Regina Noctis (2019), Black Metal
post Oct 11 2019, 03:10:45
Post #1

Правь статус, ####!111
**************
Group: Металариец
Posts: 19,079
Releases: 12876
From: Г.Харьков
On Forums: 7 years 5 months
Thanks: 221008 time(s)
Unknown


(IMG:http://metalarea.org/images/audiocovers/2019_Oct/acov_tid328629_thumb.jpg)

*Artist: Obscurum Malum
*Album: Regina Noctis
*Year: 2019
*Genre: Black Metal
*Country: Italy (IMG:http://metalarea.org/forum/style_images/flags/Italy.png)
*Format: mp3@CBR320kbps
*Size: 81MB

Tracklist:
1. Regina Noctis 06:52
2. Oscuradivina 05:30
3. Ekate Trivia 07:44
4. Divinanotte 02:39
5. Ekate Phosphoros 07:05
6. Ekate ailomoros 05:13
******************************
Total playing time: 35:03




Extended info
Marco Mainiero All instruments, Vocals
See also: Mystica


Technical info
(IMG:http://metalarea.org/images/spectrogram/2019_Oct/2170571869c036674687c3ecc0403c5e.png)
Input File: 03 - Ekate Trivia.mp3
Channels : 2
Sample Rate : 44100
Precision : 16-bit
Duration : 00:07:44.17 = 20469853 samples = 34812.7 CDDA sectors
File Size : 18.7M
Bit Rate : 322k
Sample Encoding: MPEG audio (layer I, II or III)
Comments :
Title=Ekate Trivia
Artist=Obscurum Malum
Album=Regina Noctis
Tracknumber=3
Year=2019-10-10
Genre=Metal
Discnumber=1



Register


Go to the top of the page
  Insert nick Quick quote
+Quote Post

Reply to this topicStart new topic
1 User(s) are reading this topic (1 Guests and 0 Anonymous Users)
0 Members:

 



- Lo-Fi Version Support form
Copyrights and abuse reports form
Time is now: 21st October 2019 - 01:04:35